Loading...
Error

Скачать Феномен / Phenomena (Дарио Ардженто) [1985, ужасы, фэнтези, BDRip] [AVC] [DVO]+[AVO] торрент без регистрации

 
Статистика раздачи
Размер:  2,18 GB   |    Скачан:  134 раза
Сидов:  1  [  0 KB/s  ]  
 
Автор Сообщение

Marsianka

[] 

Феномен / Phenomena (1985) BDRip-AVC от PowerTracker

Жанр: ужасы, фэнтези
Страна: Италия
Режиссер: Дарио Ардженто
В ролях: Дженнифер Коннелли, Дария Николоди, Фьоре Ардженто, Далила Ди Лаззаро, Патрик Бошо, Федерика Мастрояни, Дональд Плезенс, Фиоренца Тессари, Марио Донатоне, Франческа Оттавиани

Сюжет фильма: Девушка, не успевшая на автобус, выходит к одиноко стоящему домику, который находится среди альпийских кругов. Здесь она встречает свою смерть. Далее действие переносится в Швейцарию, в частную женскую школу. В эту школу недавно перевелась девушка по имени Дженнифер Корвино. Девушка обладает сверхъестественными способностями она может управлять насекомыми и, к тому же, страдает лунатизмом. Однако вскоре в школе начинают происходить убийства. Убийца отрезает головы своим жертвам. Вскоре Дженнифер, в приступе очередного лунатизма, становится свидетелем убийства, однако, находясь в своеобразном состоянии, не может вспомнить всех подробностей происшедшего.

Далее девушка встречается с профессором Джоном МакГрегором, который помогает полиции в расследовании серийных убийств в женской школе. Доктор открывает телепатическую связь Дженнифер с насекомыми, а сама Дженнифер тоже становится участницей расследования. Но за ней начинает охоту маньяк.


«Для работы над этим фильмом Ардженто долгое время изучал работу Леклерка «Энтомология и судебная медицина». Фильм стал первой работой Ардженто на английском языке.»

Мировая премьера: 31 января 1985



Продолжительность: 01:55:30
Качество видео: BDRip-AVC
Видео: кодек: x264, размер кадра: 1024x614, битрейт: 1810 кб/с, bit/pixel: 0.120
Аудио #1: язык: Русский , перевод: Профессиональный двухголосый закадровый [R5], кодек: AC3 5.1, битрейт: 384.00 кб/с
Аудио #2: язык: Русский , перевод: Авторский одноголосный закадровый (А. Гаврилов), кодек: AC3 5.1, битрейт: 384.00 кб/с
Аудио #3: язык: Английский , перевод: оригинал, кодек: AAC 2.0, битрейт: 128.00 кб/с
Субтитры: тип: вшитые отключаемые, формат: SRT, язык: Русский, Английский

&
Фильм снимался в Цюрихе.
Фильм стал первой работой Ардженто на английском языке.
Шимпанзе с бритвой в руках, которая появляется в фильме, ранее снималась в комедиях вместе с Адриано Челентано.
В сцене, в которой можно видеть бассейн с расчленёнными трупами и червями, в качестве материалов для человеческих черепов использовалась пластмасса.
Для съёмок фильма Ардженто планировал использовать механических насекомых, однако их не удалось создать, тогда Ардженто занялся их разведением (в числе его насекомых были бабочки, муравьи, тараканы, мухи, светлячки и улитки).
Общее
Уникальный идентификатор : 186781554792997091073814325075273945463 (0x8C84D1A6480E3C6EBC61F0DA8EC99177)
Полное имя : D:РоздачиPhenomena.1985.BDRip-AVC.PT.mkv
Формат : Matroska
Версия формата : Version 2
Размер файла : 2,18 Гбайт
Продолжительность : 1 ч. 55 м.
Общий поток : 2707 Кбит/сек
Название фильма : Феномен / Phenomena (1985) BDRip-AVC rip by rulya74
Дата кодирования : UTC 2012-01-07 06:55:58
Программа кодирования : mkvmerge v4.9.1 ('Ich will') сборка от Jul 11 2011 23:53:15
Библиотека кодирования : libebml v1.2.1 + libmatroska v1.1.1

Видео
Идентификатор : 1
Формат : AVC
Формат/Информация : Advanced Video Codec
Профиль формата : High@L4.1
Параметр CABAC формата : Да
Параметр ReFrames формата : 13 кадров
Идентификатор кодека : V_MPEG4/ISO/AVC
Продолжительность : 1 ч. 55 м.
Номинальный битрейт : 1810 Кбит/сек
Ширина : 1024 пикселя
Высота : 614 пикселей
Соотношение сторон : 1,668
Частота кадров : 23,976 кадра/сек
Цветовое пространство : YUV
Субдискретизация насыщенности : 4:2:0
Битовая глубина : 8 бит
Тип развёртки : Прогрессивная
Бит/(Пиксели*Кадры) : 0.120
Библиотека кодирования : x264 core 116 r2074 2641b9e
Настройки программы : cabac=1 / ref=13 / deblock=1:-3:-2 / analyse=0x3:0x133 / me=umh / subme=9 / psy=1 / psy_rd=1.00:0.00 / mixed_ref=1 / me_range=48 / chroma_me=1 / trellis=2 / 8x8dct=1 / cqm=0 / deadzone=21,11 / fast_pskip=1 / chroma_qp_offset=-2 / threads=6 / sliced_threads=0 / nr=0 / decimate=1 / interlaced=0 / bluray_compat=0 / constrained_intra=0 / bframes=13 / b_pyramid=2 / b_adapt=2 / b_bias=0 / direct=3 / weightb=1 / open_gop=0 / weightp=2 / keyint=250 / keyint_min=23 / scenecut=40 / intra_refresh=0 / rc=2pass / mbtree=0 / bitrate=1810 / ratetol=1.0 / qcomp=0.60 / qpmin=10 / qpmax=51 / qpstep=4 / cplxblur=20.0 / qblur=0.5 / ip_ratio=1.40 / pb_ratio=1.30 / aq=1:1.00
Default : Да
Forced : Нет

Аудио #1
Идентификатор : 2
Формат : AC-3
Формат/Информация : Audio Coding 3
Расширение режима : CM (complete main)
Идентификатор кодека : A_AC3
Продолжительность : 1 ч. 55 м.
Вид битрейта : Постоянный
Битрейт : 384 Кбит/сек
Каналы : 6 каналов
Расположение каналов : Front: L C R, Side: L R, LFE
Частота : 48,0 КГц
Битовая глубина : 16 бит
Метод сжатия : С потерями
Размер потока : 317 Мбайт (14%)
Заголовок : Двухголосый [R5]
Язык : Russian
Default : Да
Forced : Нет

Аудио #2
Идентификатор : 3
Формат : AC-3
Формат/Информация : Audio Coding 3
Расширение режима : CM (complete main)
Идентификатор кодека : A_AC3
Продолжительность : 1 ч. 55 м.
Вид битрейта : Постоянный
Битрейт : 384 Кбит/сек
Каналы : 6 каналов
Расположение каналов : Front: L C R, Side: L R, LFE
Частота : 48,0 КГц
Битовая глубина : 16 бит
Метод сжатия : С потерями
Размер потока : 317 Мбайт (14%)
Заголовок : Одноголосый - А. Гаврилов
Язык : Russian
Default : Нет
Forced : Нет

Аудио #3
Идентификатор : 4
Формат : AAC
Формат/Информация : Advanced Audio Codec
Профиль формата : LC
Идентификатор кодека : A_AAC
Продолжительность : 1 ч. 55 м.
Каналы : 2 канала
Расположение каналов : Front: L R
Частота : 48,0 КГц
Метод сжатия : С потерями
Заголовок : Оригинал
Язык : English
Default : Нет
Forced : Нет

Текст #1
Идентификатор : 5
Формат : UTF-8
Идентификатор кодека : S_TEXT/UTF8
Идентификатор кодека/Информация : UTF-8 Plain Text
Язык : Russian
Default : Нет
Forced : Нет

Текст #2
Идентификатор : 6
Формат : UTF-8
Идентификатор кодека : S_TEXT/UTF8
Идентификатор кодека/Информация : UTF-8 Plain Text
Язык : English
Default : Нет
Forced : Нет

Меню
00:00:00.000 : en:Chapter 1
00:06:57.082 : en:Chapter 2
00:11:43.535 : en:Chapter 3
00:19:29.960 : en:Chapter 4
00:28:05.893 : en:Chapter 5
00:36:11.126 : en:Chapter 6
00:45:38.527 : en:Chapter 7
00:53:46.347 : en:Chapter 8
00:57:56.181 : en:Chapter 9
01:05:41.061 : en:Chapter 10
01:11:36.207 : en:Chapter 11
01:20:23.068 : en:Chapter 12
01:29:23.649 : en:Chapter 13
01:36:05.801 : en:Chapter 14
01:43:50.932 : en:Chapter 15
01:52:55.268 : en:Chapter 16



Скачать Феномен.Phenomena.(Дарио.Ардженто).[1985.ужасы.фэнтези.BDRip].[AVC].[DVO]+[AVO].torrent без регистрации
Золото ЗОЛОТАЯ РАЗДАЧА! СКАЧАННОЕ НЕ ЗАСЧИТЫВАЕТСЯ! Золото
Дата: Зарегистрирован   [ Тип: внутренний ] Как тут cкачать?
MAGNET ссылка
MAGNET ссылка


Скачать .torrent

11 KB

Статус: проверено DHT
Скачан: торрент - 134 раз, раздача полностью - 10 раз
Размер: 2,18 GB
Оценка:  - (Голосов: 0)
Поблагодарили: 2
Поделиться ссылкой на эту раздачу с друзьями:
В контактеFacebookОдноклассникиTwitterLivejournalМой МирLiveinternet
 

 
Показать сообщения:    


Вы не можете начинать темы
Вы не можете отвечать на сообщения
Вы не можете редактировать свои сообщения
Вы не можете удалять свои сообщения
Вы не можете голосовать в опросах
Вы не можете прикреплять файлы к сообщениям
Вы можете скачивать файлы