Loading...
Error

Скачать Жена священника / The Preacher's Wife (Пенни Маршалл) [1996, фэнтези, драма, мелодрама, комедия, семейный, DVDRip] [MVO] торрент без регистрации

 
Статистика раздачи
Размер:  1,94 GB   |    Скачан:  140 раз
Сидов:  1  [  0 KB/s  ]  
 
Автор Сообщение

Marsianka

[] 

Информация о фильме
Название: Жена священника
Оригинальное название: The Preacher's Wife
Страна: США
Год выхода: 1996
Жанр: фэнтези, драма, мелодрама, комедия, семейный
Продолжительность: 1:58:43
Перевод: Профессиональный (многоголосый, закадровый), Оригинальная дорожка (Английская) отдельно
Режиссер: Пенни Маршалл
В ролях: Дензел Вашингтон, Уитни Хьюстон, Кортни Б. Вэнс, Грегори Хайнс, Дженифер Льюис, Лоретта Дивайн, Джастин Пьер Эдмунд, Лайонел Ричи, Пол Бейтс, Лекс Монсон

О фильме:
Жена священника маленького городка действительно нуждалась в помощи ее брак на грани распада, ее муж думает только о работе. Но то, что она получила в ответ на свои молитвы, оказалось настоящим чудом.
Веселый и беззаботный ангел по имени Дадли спустился с небес, чтобы воссоединить пару. Но проходит немного времени, и он становится не решением, а источником их проблем.
Рейтинг PG - Рекомендуется присутствие родителей



Этот рейтинг получают фильмы, которые требуют внимания со стороны родителей. Возможно некоторые сцены из картины родители посчитают неприемлемыми для просмотра своими детьми. Но в фильме точно отсутствуют сексуальные эпизоды и сцены с использованием наркотиков. Рейтинг PG никогда не присвоят ленте жанра хоррор или триллер.


Файл
Кодек: DivX
Качество: DVDRip
Видео: 720x384, 25 fps, DivX 5, 1878 kbps
Звук 1: 48 kHz, AC3 Dolby Digital, 2/0 (L,R) ch, ~256.00 kbps avg
Звук 2: 48 kHz, AC3 Dolby Digital, 2/0 (L,R) ch, ~192.00 kbps avg - отдельно

[SAMPLE]
General
Complete name : The_Preacher's_Wife_1996_DVDRip.avi
Format : AVI
Format/Info : Audio Video Interleave
File size : 1.78 GiB
Duration : 1h 58mn
Overall bit rate : 2 144 Kbps
Writing application : VirtualDubMod 1.5.10.2 (build 2540/release)
Writing library : VirtualDubMod build 2540/release

Video
ID : 0
Format : MPEG-4 Visual
Format settings, BVOP : Yes
Format settings, QPel : No
Format settings, GMC : No warppoints
Format settings, Matrix : Default (H.263)
Codec ID : DX50
Codec ID/Hint : DivX 5
Duration : 1h 58mn
Bit rate : 1 878 Kbps
Width : 720 pixels
Height : 384 pixels
Display aspect ratio : 1.875
Frame rate : 25.000 fps
Color space : YUV
Chroma subsampling : 4:2:0
Bit depth : 8 bits
Scan type : Progressive
Compression mode : Lossy
Bits/(Pixel*Frame) : 0.272
Stream size : 1.56 GiB (88%)
Writing library : DivX 6.8.3-6.8.4 (UTC 2008-06-07)

Audio
ID : 1
Format : AC-3
Format/Info : Audio Coding 3
Mode extension : CM (complete main)
Codec ID : 2000
Duration : 1h 58mn
Bit rate mode : Constant
Bit rate : 256 Kbps
Channel(s) : 2 channels
Channel positions : Front: L R
Sampling rate : 48.0 KHz
Bit depth : 16 bits
Compression mode : Lossy
Stream size : 217 MiB (12%)
Alignment : Aligned on interleaves
Interleave, duration : 40 ms (1.00 video frame)
Interleave, preload duration : 512 ms
Релиз от: Koller



Скачать Жена.священника.The.Preacher's.Wife.(Пенни.Маршалл).[1996.фэнтези.драма.мелодрама.комедия.семейный.DVDRip].[MVO].torrent без регистрации
Золото ЗОЛОТАЯ РАЗДАЧА! СКАЧАННОЕ НЕ ЗАСЧИТЫВАЕТСЯ! Золото
Дата: Зарегистрирован   [ Тип: внутренний ] Как тут cкачать?
MAGNET ссылка
MAGNET ссылка


Скачать .torrent

20 KB

Статус: проверено DHT
Скачан: торрент - 140 раз, раздача полностью - 7 раз
Размер: 1,94 GB
Оценка:  - (Голосов: 0)
Поблагодарили: 2
Поделиться ссылкой на эту раздачу с друзьями:
В контактеFacebookОдноклассникиTwitterLivejournalМой МирLiveinternet
 

 
Показать сообщения:    


Вы не можете начинать темы
Вы не можете отвечать на сообщения
Вы не можете редактировать свои сообщения
Вы не можете удалять свои сообщения
Вы не можете голосовать в опросах
Вы не можете прикреплять файлы к сообщениям
Вы можете скачивать файлы