Loading...
Error

Скачать Поездка в Америку / Coming To America (Джон Лэндис) [1988, Комедия, BDRip] [AVC] [MVO]+[AVO] торрент без регистрации

 
Статистика раздачи
Размер:  3,55 GB   |    Скачан:  154 раза

Полного источника не было: 19 минут

 
Автор Сообщение

Marsianka

[] 

Информация о фильме
Название: Поездка в Америку
Оригинальное название: Coming To America
Год выхода: 1988
Жанр: Комедия
Режиссер: Джон Лэндис
В ролях: Эдди Мерфи, Арсенио Холл, Джеймс Эрл Джонс, Джон Эймос, Мэдж Синклер, Шари Хэдли, Пол Бейтс, Эрик Ла Салль, Фрэнки Фэйзон, Ванесса Белл Кэллоуэй, Луи Андерсон, Эллисон Дин, Шила Джонсон, Джейк Стайнфелд, Кэлвин Локхарт, Сэмюэл Л. Джексон, Стефани Саймон, Гарсель Бове, Вонди Куртис-Холл, Илэйн Каган, Дон Амичи, Ральф Беллами, Кьюба Гудинг мл., Рубен Сантьяго-Хадсон, Патриция Мэтьюз, Мэри Бонд Дэвис, Кара Янг, Джанетт Колон, Ванесса Колон, Миндора Миммс, Тоня Риверз, Стив Уайт, Хелен Хэнфт, Джим Абрахамс, Паула Браун, Стефани Кларк, Карла Эрл, Дебра Джонсон, Таня Линн Ли, Донна М. Перкинс, Рой Милтон Дэвис, Ник Сэвадж, Элисон Горди, Дориан ДеМишль, Скотт Пасторе, Карен Оуенс

О фильме:
Наследный принц африканского государства хочет сам найти себе жену и едет для этого в Америку в компании своего верного друга.В Штатах принц прикидывается обычным работягой-парнем и поступает работать в закусочную, где ему очень приглянулась дочь хозяина.Девушка и не подозревает, кто в действительности её скромный ухажёр и что она уже потенциальная принцесса.



Страна: США
Продолжительность: 01:56:48
Перевод: Профессиональный многоголосый / Авторский одноголосый (А.Михалёв)
Дата релиза: 08.01.2012

Файл
Кодек: H.264
Качество: BDRip (AVC) (Blu-ray Remux (1080p))
Видео: MPEG-4 AVC, 3000 Кбит/с, 1024x576, 23.976 кадр/с
Звук: Русский (AC3, 6 ch, 448 Кбит/с), русский (AC3, 6 ch, 448 Кбит/с), английский ( AC3, 6 ch, 448 Кбит/с)
Общее
Уникальный идентификатор : 243132771761192175834868304481148912406 (0xB6E9AB26BA1269CE9B8832FAE6EAC316)
Полное имя : G:Poezdka.v.Ameriku.1988.x264.BDRip.(AVC).ExKinoRay.mkv
Формат : Matroska
Версия формата : Version 2
Размер файла : 3,55 Гбайт
Продолжительность : 1 ч. 56 м.
Общий поток : 4345 Кбит/сек
Название фильма : Poezdka.v.Ameriku.1988.x264.BDRip.(AVC).ExKinoRay (Enigma-Vladislav71)
Дата кодирования : UTC 2012-01-08 16:56:52
Программа кодирования : mkvmerge v4.0.0 ('The Stars were mine') сборка от Jun 6 2010 16:18:42
Библиотека кодирования : libebml v1.0.0 + libmatroska v1.0.0

Видео
Идентификатор : 1
Формат : AVC
Формат/Информация : Advanced Video Codec
Профиль формата : High@L4.1
Параметр CABAC формата : Да
Параметр ReFrames формата : 8 кадров
Идентификатор кодека : V_MPEG4/ISO/AVC
Продолжительность : 1 ч. 56 м.
Битрейт : 3000 Кбит/сек
Ширина : 1024 пикселя
Высота : 576 пикселей
Соотношение сторон : 16:9
Частота кадров : 23,976 кадра/сек
Цветовое пространство : YUV
Субдискретизация насыщенности : 4:2:0
Битовая глубина : 8 бит
Тип развёртки : Прогрессивная
Бит/(Пиксели*Кадры) : 0.212
Размер потока : 2,38 Гбайт (67%)
Библиотека кодирования : x264 core 116 r2074 2641b9e
Настройки программы : cabac=1 / ref=8 / deblock=1:-2:-2 / analyse=0x3:0x133 / me=umh / subme=11 / psy=1 / psy_rd=1.00:0.00 / mixed_ref=1 / me_range=48 / chroma_me=1 / trellis=2 / 8x8dct=1 / cqm=0 / deadzone=21,11 / fast_pskip=0 / chroma_qp_offset=-2 / threads=3 / sliced_threads=0 / nr=0 / decimate=1 / interlaced=0 / bluray_compat=0 / constrained_intra=0 / bframes=8 / b_pyramid=2 / b_adapt=2 / b_bias=0 / direct=3 / weightb=1 / open_gop=0 / weightp=2 / keyint=250 / keyint_min=23 / scenecut=40 / intra_refresh=0 / rc=2pass / mbtree=0 / bitrate=3000 / ratetol=1.0 / qcomp=0.60 / qpmin=10 / qpmax=51 / qpstep=4 / cplxblur=20.0 / qblur=0.5 / ip_ratio=1.40 / pb_ratio=1.30 / aq=2:1.00
Язык : English

Аудио #1
Идентификатор : 2
Формат : AC-3
Формат/Информация : Audio Coding 3
Расширение режима : CM (complete main)
Идентификатор кодека : A_AC3
Продолжительность : 1 ч. 56 м.
Вид битрейта : Постоянный
Битрейт : 448 Кбит/сек
Каналы : 6 каналов
Расположение каналов : Front: L C R, Side: L R, LFE
Частота : 48,0 КГц
Битовая глубина : 16 бит
Метод сжатия : С потерями
Размер потока : 374 Мбайт (10%)
Заголовок : многоголосый
Язык : Russian

Аудио #2
Идентификатор : 3
Формат : AC-3
Формат/Информация : Audio Coding 3
Расширение режима : CM (complete main)
Идентификатор кодека : A_AC3
Продолжительность : 1 ч. 56 м.
Вид битрейта : Постоянный
Битрейт : 448 Кбит/сек
Каналы : 6 каналов
Расположение каналов : Front: L C R, Side: L R, LFE
Частота : 48,0 КГц
Битовая глубина : 16 бит
Метод сжатия : С потерями
Размер потока : 374 Мбайт (10%)
Заголовок : Михалёв
Язык : Russian

Аудио #3
Идентификатор : 4
Формат : AC-3
Формат/Информация : Audio Coding 3
Расширение режима : CM (complete main)
Идентификатор кодека : A_AC3
Продолжительность : 1 ч. 56 м.
Вид битрейта : Постоянный
Битрейт : 448 Кбит/сек
Каналы : 6 каналов
Расположение каналов : Front: L C R, Side: L R, LFE
Частота : 48,0 КГц
Битовая глубина : 16 бит
Метод сжатия : С потерями
Размер потока : 374 Мбайт (10%)
Заголовок : английский
Язык : Russian
Семпл Релиз от:

Авторы релиза:



Скачать Поездка.в.Америку.Coming.To.America.(Джон.Лэндис).[1988.Комедия.BDRip].[AVC].[MVO]+[AVO].torrent без регистрации
Золото ЗОЛОТАЯ РАЗДАЧА! СКАЧАННОЕ НЕ ЗАСЧИТЫВАЕТСЯ! Золото
Дата: Зарегистрирован   [ Тип: внутренний ] Как тут cкачать?
MAGNET ссылка
MAGNET ссылка


Скачать .torrent

18 KB

Статус: проверено DHT
Скачан: торрент - 154 раз, раздача полностью - 14 раз
Размер: 3,55 GB
Оценка:  - (Голосов: 0)
Поблагодарили: 2
Поделиться ссылкой на эту раздачу с друзьями:
В контактеFacebookОдноклассникиTwitterLivejournalМой МирLiveinternet
 

 
Показать сообщения:    


Вы не можете начинать темы
Вы не можете отвечать на сообщения
Вы не можете редактировать свои сообщения
Вы не можете удалять свои сообщения
Вы не можете голосовать в опросах
Вы не можете прикреплять файлы к сообщениям
Вы можете скачивать файлы