Loading...
Error

Скачать Аббатство Даунтон / Downton Abbey (сезон 02 + Рождественский эпизод и Фильм о фильме) (Джулиан Феллоуз) [2011, драма, история, HDTVRip] [BaibaKo] торрент без регистрации

 
Статистика раздачи
Размер:  7,34 GB   |    Скачан:  164 раза
Сидов:  1  [  0 KB/s  ]  
 
Автор Сообщение

МихаНЕзатор

[] 

Информация о фильме
Название: Аббатство Даунтон
Оригинальное название: Downton Abbey
Год выхода: 2011
Жанр: драма, история
Режиссер: Джулиан Феллоуз / Julian Fellowes
В ролях: Хью Бонневилль, Джессика Браун-Финдлэй, Лаура Кармайкл, Джим Картер, Брендан Койл, Мишель Докери, Сиобэн Финнеран, Джоэнн Фрогэтт, Томас Хоус, Rob James-Collier

О фильме:
1912 год. Англия. Наследник титула графа Грэнтэма, живущего с семьей в своем родовом имении Даунтон, погибает на «Титанике». Семья ожидает, что теперь, когда наследников мужского пола не осталось, владения и капитал семьи после смерти графа перейдут к его старшей дочери. Но граф, отдавший всю свою жизнь своему поместью, отказывается отстаивать права юной Мэри, считая, что все, включая немалый капитал его жены, должно отойти к наследнику его графского титула, безвестному дальнему родственнику


Страна: Великобритания
Студия: Carnival Films
Продолжительность: ~ 55 минут
Перевод: любительский многоголосый закадровый (BaibaKo)

Файл
Кодек: XviD
Качество: HDTVRip
Видео: 720x400, XviD, 25 кадр/сек, 1280kbps avg, 0.23 bit/pixel
Звук:
Аудио 1: 48 kHz, MPEG Layer 3, 2 ch, ~192.00 kbps avg [BaibaKo]
Аудио 2: 48 kHz, MPEG Layer 3, 2 ch, ~192.00 kbps avg [Оригинал]
Субтитры: отсутствуют
General
Complete name : G:Abbatstvo.Daunton.(2.sezon.8.serija.iz.8).2011.XviD.HDTVRip_BaibaKo.avi
Format : AVI
Format/Info : Audio Video Interleave
File size : 807 MiB
Duration : 1h 7mn
Overall bit rate : 1 678 Kbps
Writing application : VirtualDubMod 1.5.10.2 (build 2540/release)
Writing library : VirtualDubMod build 2540/release

Video
ID : 0
Format : MPEG-4 Visual
Format profile : Advanced Simple@L5
Format settings, BVOP : 2
Format settings, QPel : No
Format settings, GMC : No warppoints
Format settings, Matrix : Default (H.263)
Muxing mode : Packed bitstream
Codec ID : XVID
Codec ID/Hint : XviD
Duration : 1h 7mn
Bit rate : 1 280 Kbps
Width : 720 pixels
Height : 400 pixels
Display aspect ratio : 16:9
Frame rate : 25.000 fps
Color space : YUV
Chroma subsampling : 4:2:0
Bit depth : 8 bits
Scan type : Progressive
Compression mode : Lossy
Bits/(Pixel*Frame) : 0.178
Stream size : 615 MiB (76%)
Writing library : XviD 1.2.1 (UTC 2008-12-04)

Audio #1
ID : 1
Format : MPEG Audio
Format version : Version 1
Format profile : Layer 3
Mode : Joint stereo
Mode extension : MS Stereo
Codec ID : 55
Codec ID/Hint : MP3
Duration : 1h 7mn
Bit rate mode : Constant
Bit rate : 192 Kbps
Channel(s) : 2 channels
Sampling rate : 48.0 KHz
Compression mode : Lossy
Stream size : 92.3 MiB (11%)
Alignment : Aligned on interleaves
Interleave, duration : 40 ms (1.00 video frame)
Interleave, preload duration : 504 ms
Writing library : LAME3.98.2

Audio #2
ID : 2
Format : MPEG Audio
Format version : Version 1
Format profile : Layer 3
Mode : Joint stereo
Mode extension : MS Stereo
Codec ID : 55
Codec ID/Hint : MP3
Duration : 1h 7mn
Bit rate mode : Constant
Bit rate : 192 Kbps
Channel(s) : 2 channels
Sampling rate : 48.0 KHz
Compression mode : Lossy
Stream size : 92.3 MiB (11%)
Alignment : Aligned on interleaves
Interleave, duration : 40 ms (1.00 video frame)
Interleave, preload duration : 504 ms
Writing library : LAME3.98.2



Скачать Аббатство.Даунтон.Downton.Abbey.(сезон.02.+.Рождественский.эпизод.и.Фильм.о.фильме).(Джулиан.Феллоуз).[2011.драма.история.HDTVRip].[BaibaKo].torrent без регистрации
Золото ЗОЛОТАЯ РАЗДАЧА! СКАЧАННОЕ НЕ ЗАСЧИТЫВАЕТСЯ! Золото
Дата: Зарегистрирован   [ Тип: внутренний ] Как тут cкачать?
MAGNET ссылка
MAGNET ссылка


Скачать .torrent

20 KB

Статус: проверено DHT
Скачан: торрент - 164 раз, раздача полностью - 143 раз
Размер: 7,34 GB
Оценка:  5 (Голосов: 1)
Поблагодарили: 1
Поделиться ссылкой на эту раздачу с друзьями:
В контактеFacebookОдноклассникиTwitterLivejournalМой МирLiveinternet
 

 
Показать сообщения:    


Вы не можете начинать темы
Вы не можете отвечать на сообщения
Вы не можете редактировать свои сообщения
Вы не можете удалять свои сообщения
Вы не можете голосовать в опросах
Вы не можете прикреплять файлы к сообщениям
Вы можете скачивать файлы