Loading...
Error

Скачать Принцип Неопределенности / Uncertainty (Скотт МакГихи / Scott McGehee, Дэвид Сигел / David Siegel) [2009, драма, BDRip] [MVO] торрент без регистрации

 
Статистика раздачи
Размер:  2,18 GB   |    Скачан:  116 раз

Полного источника не было: Никогда

 
Автор Сообщение

Jenek

[] 

Принцип Неопределенности / Uncertainty (2009) BDRip от cairow

Информация о фильме
Название: Принцип Неопределенности
Оригинальное название: Uncertainty
Год выхода: 2009
Жанр: Драма
Режиссеры: Скотт МакГихи / Scott McGehee, Дэвид Сигел / David Siegel
Сценаристы: Скотт МакГихи / Scott McGehee, Дэвид Сигел / David Siegel
Продюсеры: Скотт МакГихи / Scott McGehee, Дэвид Сигел / David Siegel, Бекки Глупчински / Becky Glupczynski
В ролях: Джозеф Гордон-Левитт / Joseph Gordon-Levitt, Линн Коллинз / Lynn Collins, Ассумпта Серна / Assumpta Serna, Нельсон Ландрэ / Nelson Landrieu, Мануэль Фельсиано / Manoel Felciano, Дженн Колелла / Jenn Colella, Джина Люка / Giana Luca, София Люка Sofia Luca, Фред Берман / Fred Berman, Сонни Браун / Sonnie Brown, ...

О фильме: Что произойдет, если режиссерский дуэт не сможет договориться? Один хотел бы снять роман, в котором речь идет о рождении семьи. Другой хочет безумный триллер с агентами, которые носят темные очки и прыгают из черных джипов. Дело зашло в тупик, но тут приходит идея. Молодая пара бросает монету и реальность делится: на одной стороне романтическая история, на другой захватывающий триллер. Может быть это удастся?



Автор рипа: cairow

Выпущено: Kinocorp, США
Продолжительность: 01:45:08
Перевод: Профессиональный (многоголосый закадровый) |R5|+ Оригинальная звуковая дорожка
Субтитры: Русские, Английские (внешние, *.srt) |присутствует ненормативная лексика!|

Файл
Формат: AVI
Качество: BDRip (источник: / BDRemux / 1080p) спасибо WhiteHorse
Видео: 720x304 (2.37:1), 23.976 fps, XviD build 64 ~ 2120 kbps avg, 0.40 bit/pixel
Аудио #1: 48 kHz, AC3 Dolby Digital, 3/2 (L,C,R,l,r) + LFE ch, 448 kbps (ENG)
Аудио #2: 48 kHz, AC3 Dolby Digital, 3/2 (L,C,R,l,r) + LFE ch, 384 kbps (RUS)
Размер: 2233.42 Mb (1/2 DVD-R)

General
Complete name : X:Uncertainty (BDRip, XviD, AC3, Eng-Rus).avi
Format : AVI
Format/Info : Audio Video Interleave
Format profile : OpenDML
File size : 2.18 GiB
Duration : 1h 45mn
Overall bit rate : 2 970 Kbps
Movie name : Uncertainty
Director : Scott McGehee, David Siegel
Genre : Drama | Romance
Recorded date : 2009
Writing application : VirtualDubMod 1.5.10.2 (build 2542/release)
Writing library : VirtualDubMod build 2542/release
Comment : BDRip by cairow

Video
ID : 0
Format : MPEG-4 Visual
Format profile : Advanced Simple@L5
Format settings, BVOP : 1
Format settings, QPel : No
Format settings, GMC : No warppoints
Format settings, Matrix : Custom
Codec ID : XVID
Codec ID/Hint : XviD
Duration : 1h 45mn
Bit rate : 2 120 Kbps
Width : 720 pixels
Height : 304 pixels
Display aspect ratio : 2.35:1
Frame rate : 23.976 fps
Color space : YUV
Chroma subsampling : 4:2:0
Bit depth : 8 bits
Scan type : Progressive
Compression mode : Lossy
Bits/(Pixel*Frame) : 0.404
Stream size : 1.56 GiB (71%)
Writing library : XviD 64

Audio #1
ID : 1
Format : AC-3
Format/Info : Audio Coding 3
Mode extension : CM (complete main)
Codec ID : 2000
Duration : 1h 45mn
Bit rate mode : Constant
Bit rate : 448 Kbps
Channel(s) : 6 channels
Channel positions : Front: L C R, Side: L R, LFE
Sampling rate : 48.0 KHz
Bit depth : 16 bits
Compression mode : Lossy
Stream size : 337 MiB (15%)
Alignment : Split accross interleaves
Interleave, duration : 42 ms (1.00 video frame)
Interleave, preload duration : 500 ms
Title : English

Audio #2
ID : 2
Format : AC-3
Format/Info : Audio Coding 3
Mode extension : CM (complete main)
Codec ID : 2000
Duration : 1h 45mn
Bit rate mode : Constant
Bit rate : 384 Kbps
Channel(s) : 6 channels
Channel positions : Front: L C R, Side: L R, LFE
Sampling rate : 48.0 KHz
Bit depth : 16 bits
Compression mode : Lossy
Stream size : 289 MiB (13%)
Alignment : Split accross interleaves
Interleave, duration : 42 ms (1.00 video frame)
Interleave, preload duration : 500 ms
Title : Russian



Скачать Принцип.Неопределенности.Uncertainty.(Скотт.МакГихи.Scott.McGehee.Дэвид.Сигел.David.Siegel).[2009.драма.BDRip].[MVO].torrent без регистрации
Золото ЗОЛОТАЯ РАЗДАЧА! СКАЧАННОЕ НЕ ЗАСЧИТЫВАЕТСЯ! Золото
Дата: Зарегистрирован   [ Тип: внутренний ] Как тут cкачать?
MAGNET ссылка
MAGNET ссылка


Скачать .torrent

12 KB

Статус: проверено
Скачан: торрент - 116 раз, раздача полностью - 0 раз
Размер: 2,18 GB
Оценка:  - (Голосов: 0)
Поблагодарили: 1
Поделиться ссылкой на эту раздачу с друзьями:
В контактеFacebookОдноклассникиTwitterLivejournalМой МирLiveinternet
 

 
Показать сообщения:    


Вы не можете начинать темы
Вы не можете отвечать на сообщения
Вы не можете редактировать свои сообщения
Вы не можете удалять свои сообщения
Вы не можете голосовать в опросах
Вы не можете прикреплять файлы к сообщениям
Вы можете скачивать файлы