Loading...
Error

Скачать Борджиа / The Borgias (Сезон 2: серии 1-10 из 10) (Нил Джордан) [2012, Драма, HDTVRip-x264] [rus sub] торрент без регистрации

 
Статистика раздачи
Размер:  3,76 GB   |    Скачан:  730 раз
Сидов:  1  [  0 KB/s  ]  
 
Автор Сообщение

leon030982

[] 

Борджиа - 2 сезон
The Borgias
Год выпуска: 2012
Страна: Канада, Ирландия, Венгрия
Жанр: Драма
Продолжительность: ~50 мин.
Перевод: Русские субтитры
Русские субтитры: Есть

Субтитры: Vipere77 , loandbehold, tttina и др.
Режиссёр: Нил Джордан

В ролях: Джереми Айронс, Дэвид Оакес , Франсуа Арно , Холлидей Грейнджер ,Лотте Вербеек, Джоанн Уолли, Мишель Мюллер и др.

Описание: Борджиа – сериал об одном из важнейших исторических периодов – эпохе Возрождения и открытии Нового света. Современники да Винчи, Микеланджело и семьи Медичи, Борджиа были неоднозначными и известными фигурами – не столько из-за того, что творили неслыханное, сколько потому, что преуспели в этом больше своих соперников.

Качество: HDTVRip
Формат: MP4

Видео кодек: MPEG4
Аудио кодек: AAC
Видео: 720x404, 23.976 fps, MPEG4 Video (H264), 948 kbps avg, 0.136 bit/pixel
Аудио: Advanced Audio Codec , 48 kHz, 2ch , 127Kbps
Сэмпл

Format : MPEG-4
Format profile : Base Media
Codec ID : isom
File size : 415 MiB
Duration : 53mn 41s
Overall bit rate mode : Variable
Overall bit rate : 1 081 Kbps
Encoded date : UTC 2011-09-08 11:43:25
Tagged date : UTC 2011-09-08 11:43:25
Video #1
ID : 1
Format : AVC
Format/Info : Advanced Video Codec
Format profile : High@L3.1
Format settings, CABAC : Yes
Format settings, ReFrames : 5 frames
Codec ID : avc1
Codec ID/Info : Advanced Video Coding
Duration : 53mn 41s
Bit rate : 948 Kbps
Width : 720 pixels
Height : 404 pixels
Display aspect ratio : 16:9
Frame rate mode : Constant
Frame rate : 23.976 fps
Color space : YUV
Chroma subsampling : 4:2:0
Bit depth : 8 bits
Scan type : Progressive
Bits/(Pixel*Frame) : 0.136
Stream size : 364 MiB (88%)
Writing library : x264 core 122 r2184 5c85e0a
Encoding settings : cabac=1 / ref=5 / deblock=1:0:0 / analyse=0x3:0x113 / me=umh / subme=8 / psy=1 / psy_rd=1.00:0.00 / mixed_ref=1 / me_range=16 / chroma_me=1 / trellis=1 / 8x8dct=1 / cqm=0 / deadzone=21,11 / fast_pskip=1 / chroma_qp_offset=-2 / threads=18 / sliced_threads=0 / nr=0 / decimate=1 / interlaced=0 / bluray_compat=0 / constrained_intra=0 / bframes=3 / b_pyramid=2 / b_adapt=2 / b_bias=0 / direct=3 / weightb=1 / open_gop=0 / weightp=2 / keyint=250 / keyint_min=23 / scenecut=40 / intra_refresh=0 / rc_lookahead=50 / rc=crf / mbtree=1 / crf=19.0 / qcomp=0.60 / qpmin=0 / qpmax=69 / qpstep=4 / ip_ratio=1.40 / aq=1:1.00
Encoded date : UTC 2011-09-08 11:43:25
Tagged date : UTC 2011-09-08 11:43:25
Matrix coefficients : BT.709-5, BT.1361, IEC 61966-2-4 709, SMPTE RP177
Audio #2
ID : 2
Format : AAC
Format/Info : Advanced Audio Codec
Format profile : LC
Codec ID : 40
Duration : 53mn 41s
Bit rate mode : Variable
Bit rate : 127 Kbps
Maximum bit rate : 187 Kbps
Channel(s) : 2 channels
Channel positions : Front: L R
Sampling rate : 48.0 KHz
Compression mode : Lossy
Stream size : 48.9 MiB (12%)
Encoded date : UTC 2011-09-08 11:43:25
Tagged date : UTC 2011-09-08 11:43:25

Внимание! Раздача ведётся путём добавления новых серий, при каждом добавлении создаётся новый торрент. Чтобы начать докачку новой серии, пользователям необходимо сделать следующее:
(1) остановить скачивание,
(2) удалить старый торрент у себя из клиента (старые серии удалять не надо),
(3) скачать новый торрент и запустить его у себя в клиенте вместо старого, при этом указать клиенту путь в старую папку куда и должно происходить скачивание новых серий.

2.01 - Бык Борджиа - 8 апреля
2.02 - Паоло - 15 апреля
2.03 - Красивый обман - 22 Апреля
2.04 - Бродячие псы - 29 Апреля
2.05 - Выбор - 6 мая
2.06 - День пепла - 13 Мая
2.07 - Осада в Форли - 20 Мая
2.08 - Правда или Ложь - 27 Мая
2.09 - Мир чудес - 3 июня
2.10 - Исповедь - 10 июня



Скачать Борджиа.The.Borgias.(Сезон.2.серии.1-10.из.10).(Нил.Джордан).[2012.Драма.HDTVRip-x264].[rus.sub].torrent без регистрации
Золото ЗОЛОТАЯ РАЗДАЧА! СКАЧАННОЕ НЕ ЗАСЧИТЫВАЕТСЯ! Золото
Дата: Зарегистрирован   [ Тип: внутренний ] Как тут cкачать?
MAGNET ссылка
MAGNET ссылка


Скачать .torrent

20 KB

Статус: проверено DHT
Скачан: торрент - 730 раз, раздача полностью - 677 раз
Размер: 3,76 GB
Оценка:  - (Голосов: 0)
Поблагодарили: 2
Поделиться ссылкой на эту раздачу с друзьями:
В контактеFacebookОдноклассникиTwitterLivejournalМой МирLiveinternet
 

 
Показать сообщения:    


Вы не можете начинать темы
Вы не можете отвечать на сообщения
Вы не можете редактировать свои сообщения
Вы не можете удалять свои сообщения
Вы не можете голосовать в опросах
Вы не можете прикреплять файлы к сообщениям
Вы можете скачивать файлы