Loading...
Error

Скачать Дневники Кэрри / The Carrie Diaries (Полный 1-ый сезон)(Мигель Артета, Норман Баккли) [2013, Мелодрама, комедия, WEB-DLRip] [DVO] (ПРИЧУДИКИ) торрент без регистрации

 
Статистика раздачи
Размер:  7,64 GB   |    Скачан:  165 раз

Полного источника не было: 30 минут

 
Автор Сообщение

leon030982

[] 

Дневники Кэрри / The Carrie Diaries


Год выпуска: 2013
Страна: США
Жанр: Мелодрама, комедия
Продолжительность: ~ 42 минуты
Перевод: Любительский (двухголосый закадровый) [ПРИЧУДИКИ]
Русские субтитры: нет

Режиссёр: Мигель Артета, Норман Баккли

В ролях: Анна-София Робб, Адриана ДеМео, Кейт Ноулин, Александра Миллер, Уитни Вэнс, Фрима Аджйеман и др.

Описание: Кэрри Брэдшоу учится в выпускном классе средней школы в начале 1980-х годов. Она сталкивается с первыми вопросами о любви, сексе, дружбе и семье во время учебы в школе и жизни на Манхэттене.
ImDB / Кинопоиск

Качество: WEB-DLRip
Формат: AVI
Видео кодек: XviD
Аудио кодек: MP3
Видео: XVID, 720х400 (16:9), 23.976 fps, 1785 kbps, 0.259 bit/pixel
Аудио: MP3, 48 kHz, 2 ch, 128 kbps
1. Пилот
Общее
Полное имя : C:\Users\Трудяга\Desktop\ЗАГРУЗКА\The Carrie Diaries\The Carrie Diaries S01E01.avi
Формат : AVI
Формат/Информация : Audio Video Interleave
Размер файла : 586 Мбайт
Продолжительность : 42 м.
Общий поток : 1923 Кбит/сек
Библиотека кодирования : VirtualDub build 34807/release
Видео
Идентификатор : 0
Формат : MPEG-4 Visual
Профиль формата : Advanced Simple@L5
Параметр BVOP формата : 2
Параметр QPel формата : Нет
Параметр GMC формата : Без точки перехода
Параметр матрицы формата : Default (H.263)
Режим смешивания : Сжатый битовый поток
Идентификатор кодека : XVID
Идентификатор кодека/Подсказка : XviD
Продолжительность : 42 м.
Битрейт : 1785 Кбит/сек
Ширина : 720 пикселей
Высота : 400 пикселей
Соотношение сторон : 16:9
Частота кадров : 23,976 кадра/сек
Цветовое пространство : YUV
Субдискретизация насыщенности : 4:2:0
Битовая глубина : 8 бит
Тип развёртки : Прогрессивная
Метод сжатия : С потерями
Бит/(Пиксели*Кадры) : 0.259
Размер потока : 544 Мбайт (93%)
Библиотека кодирования : XviD 1.2.1 (UTC 2008-12-04)
Аудио
Идентификатор : 1
Формат : MPEG Audio
Версия формата : Version 1
Профиль формата : Layer 3
Режим : Joint stereo
Расширение режима : MS Stereo
Идентификатор кодека : 55
Идентификатор кодека/Подсказка : MP3
Продолжительность : 42 м.
Вид битрейта : Постоянный
Битрейт : 128 Кбит/сек
Каналы : 2 канала
Частота : 48,0 КГц
Метод сжатия : С потерями
Размер потока : 39,0 Мбайт (7%)
Выравнивание : Разделение по промежуткам
Продолжительность промежутка : 42 мс. (1,00 видеокадр)
Время предзагрузки промежутка : 500 мс.
Библиотека кодирования : LAME3.97



Скачать Дневники.Кэрри.The.Carrie.Diaries.(Полный.1-ый.сезон)(Мигель.Артета.Норман.Баккли).[2013.Мелодрама.комедия.WEB-DLRip].[DVO].(ПРИЧУДИКИ).torrent без регистрации
Золото ЗОЛОТАЯ РАЗДАЧА! СКАЧАННОЕ НЕ ЗАСЧИТЫВАЕТСЯ! Золото
Дата: Зарегистрирован   [ Тип: внутренний ] Как тут cкачать?
MAGNET ссылка
MAGNET ссылка


Скачать .torrent

21 KB

Статус: проверено DHT
Скачан: торрент - 165 раз, раздача полностью - 19 раз
Размер: 7,64 GB
Оценка:  - (Голосов: 0)
Поблагодарили: 0
Поделиться ссылкой на эту раздачу с друзьями:
В контактеFacebookОдноклассникиTwitterLivejournalМой МирLiveinternet
 

 

leon030982

[] 

добавлена 7-я серия ab az
 

leon030982

[] 

8-я серия az
 

leon030982

[] 

9-10 серия az
 

leon030982

[] 

сезон завершен az
 
Показать сообщения:    


Вы не можете начинать темы
Вы не можете отвечать на сообщения
Вы не можете редактировать свои сообщения
Вы не можете удалять свои сообщения
Вы не можете голосовать в опросах
Вы не можете прикреплять файлы к сообщениям
Вы можете скачивать файлы