Loading...
Error

Скачать Рим / Rome (сезоны 01-02) (Майкл Эптид, Аллен Коултер и др.) [2005-2007, боевик, драма, мелодрама, военный, история, HDRip-AVC] [MVO (Lostfilm)]+[DVO (НТВ+)] торрент без регистрации

 
Статистика раздачи
Размер:  26,53 GB   |    Скачан:  208 раз
Сидов:  1  [  0 KB/s  ]  
 
Автор Сообщение

МихаНЕзатор

[] 



Информация о фильме
Название: Рим
Оригинальное название: Rome
Год выхода: 2005-2007
Жанр: боевик, драма, мелодрама, военный, история
Режиссер: Майкл Эптид, Аллен Коултер, Алан Пол, Стив Шилл, Тимоти Ван Паттен, Алан Тейлор, Джон Мэйбери

В ролях: Кевин МакКидд, Рэй Стивенсон, Полли Уокер, Керри Кондон, Киаран Хайндс, Джеймс Пьюрфой, Йен МакНайс, Линдси Дункан, Лидия Бионди, Тобиаш Мензес, Дэвид Бамбер, Макс Пиркис, Ли Бордман

О фильме:
52 год до нашей эры. Прошло 400 лет с момента основания республики. Рим превратился в самый богатый город в мире с населением более чем в миллион человек, символ мощи и несокрушимости могущественной Империи. Республика была издревле основана на принципах общедоступности и свободы волеизъявления, на борьбе свободных граждан за власть это принцип должны были не позволить одному человеку узурпировать власть. Но теперь устои, казавшиеся незыблемыми рушатся, патриции, основа старой республики погрязли в праздности и лени. Некогда мощная спартанская дисциплина не выдержала испытания роскошью и достатком. Обостряется борьба между богатыми патрициями и нищим плебсом. Гражданские институты ослабевают, все большую и большую роль начинает играть армия. Гай Юлий Цезарь в результате восьми лет упорной борьбы покорил Галлию и теперь триумфально возвращается в Рим. За ним идут закаленные в боях легионы, преданные лично ему. Патриции в ужасе они угрожают преследовать Цезаря за военные преступления, если он войдет в Рим. Тонкое равновесие в сенате поддерживает только лишь старый друг и наставник Цезаря, Помпей Великий. В это время, два солдата 13-ого легиона Цезаря, Люций Варен и Тит Пуло, отправляются в дебри Галлии, чтобы отыскать утерянный штандарт их легиона, символ объединения войск Цезаря. Любовь и ненависть, дружба и непримиримое соперничество, верность и предательтсво те вехи, на которых базируется история человечества с незапамятных времен. Вы увидите историю возвышения и падения величайших людей древности, прикоснетесь к тайнам одной из самых могущественных античных цивилизаций...



Страна: США
Студия: HD Vision Studios, British Broadcasting Corporation (BBC), Home Box Office (HBO)
Продолжительность: 22 x ~ 00:54:29
Перевод: Профессиональный (многоголосый закадровый), профессиональный (двухголосый закадровый)

Файл
Кодек: h.264
Качество: HDRip-AVC
Видео: 2222 Кбит/с, 1024x576, 23.976 кадр/с

Звук:
1: Русский (AC3, 6 ch, 384 Кбит/с) Профессиональный двухголосый (Lostfilm)
2: Русский (AC3, 2 ch, 192 Кбит/с) Профессиональный многоголосый (НТВ+)
3: Английский (AC3, 6 ch, 384 Кбит/с)

Субтитры: Русские (Киномания, Izmail), английские

Релиз от:

Формат : Matroska
Версия формата : Version 2
Размер файла : 1,21 Гбайт
Продолжительность : 54 м.
Общий поток : 3184 Кбит/сек
Дата кодирования : UTC 2011-08-12 15:38:43
Программа кодирования : mkvmerge v4.9.1 ('Ich will') сборка от Jul 11 2011 23:53:15
Библиотека кодирования : libebml v1.2.1 + libmatroska v1.1.1

Видео
Идентификатор : 1
Формат : AVC
Формат/Информация : Advanced Video Codec
Профиль формата : High@L4.1
Параметр CABAC формата : Да
Параметр ReFrames формата : 8 кадров
Идентификатор кодека : V_MPEG4/ISO/AVC
Продолжительность : 54 м.
Битрейт : 2222 Кбит/сек
Ширина : 1024 пикселя
Высота : 576 пикселей
Соотношение сторон : 16:9
Частота кадров : 23,976 кадра/сек
Цветовое пространство : YUV
Субдискретизация насыщенности : 4:2:0
Битовая глубина : 8 бит
Тип развёртки : Прогрессивная
Бит/(Пиксели*Кадры) : 0.157
Размер потока : 841 Мбайт (68%)
Библиотека кодирования : x264 core 92 r1510 33d382a
Настройки программы : cabac=1 / ref=8 / deblock=1:-2:-1 / analyse=0x3:0x113 / me=umh / subme=9 / psy=1 / psy_rd=1.00:0.20 / mixed_ref=1 / me_range=32 / chroma_me=1 / trellis=2 / 8x8dct=1 / cqm=0 / deadzone=21,11 / fast_pskip=0 / chroma_qp_offset=-3 / threads=3 / sliced_threads=0 / nr=0 / decimate=1 / interlaced=0 / constrained_intra=0 / bframes=5 / b_pyramid=2 / b_adapt=2 / b_bias=0 / direct=3 / wpredb=1 / wpredp=2 / keyint=250 / keyint_min=25 / scenecut=40 / intra_refresh=0 / rc=2pass / mbtree=0 / bitrate=2222 / ratetol=1.0 / qcomp=0.60 / qpmin=10 / qpmax=51 / qpstep=4 / cplxblur=20.0 / qblur=0.5 / ip_ratio=1.40 / pb_ratio=1.30 / aq=1:1.00
Язык : English

Аудио #1
Идентификатор : 2
Формат : AC-3
Формат/Информация : Audio Coding 3
Расширение режима : CM (complete main)
Идентификатор кодека : A_AC3
Продолжительность : 54 м.
Вид битрейта : Постоянный
Битрейт : 384 Кбит/сек
Каналы : 6 каналов
Расположение каналов : Front: L C R, Side: L R, LFE
Частота : 48,0 КГц
Битовая глубина : 16 бит
Метод сжатия : С потерями
Размер потока : 149 Мбайт (12%)
Заголовок : LostFilm
Язык : Russian

Аудио #2
Идентификатор : 3
Формат : AC-3
Формат/Информация : Audio Coding 3
Расширение режима : CM (complete main)
Идентификатор кодека : A_AC3
Продолжительность : 54 м.
Вид битрейта : Постоянный
Битрейт : 192 Кбит/сек
Каналы : 2 канала
Расположение каналов : Front: L R
Частота : 48,0 КГц
Битовая глубина : 16 бит
Метод сжатия : С потерями
Размер потока : 74,7 Мбайт (6%)
Заголовок : НТВ+
Язык : Russian

Аудио #3
Идентификатор : 4
Формат : AC-3
Формат/Информация : Audio Coding 3
Расширение режима : CM (complete main)
Идентификатор кодека : A_AC3
Продолжительность : 54 м.
Вид битрейта : Постоянный
Битрейт : 384 Кбит/сек
Каналы : 6 каналов
Расположение каналов : Front: L C R, Side: L R, LFE
Частота : 48,0 КГц
Битовая глубина : 16 бит
Метод сжатия : С потерями
Размер потока : 149 Мбайт (12%)

Текст #1
Идентификатор : 5
Формат : UTF-8
Идентификатор кодека : S_TEXT/UTF8
Идентификатор кодека/Информация : UTF-8 Plain Text
Заголовок : Киномания
Язык : Russian

Текст #2
Идентификатор : 6
Формат : UTF-8
Идентификатор кодека : S_TEXT/UTF8
Идентификатор кодека/Информация : UTF-8 Plain Text
Заголовок : Izmail
Язык : Russian

Текст #3
Идентификатор : 7
Формат : UTF-8
Идентификатор кодека : S_TEXT/UTF8
Идентификатор кодека/Информация : UTF-8 Plain Text
Язык : English

-------------------------------------------------------------------
~ x264 [info]: frame I:744 Avg QP:17.36 size: 76400
~ x264 [info]: frame P:18551 Avg QP:19.50 size: 22596
~ x264 [info]: frame B:55920 Avg QP:21.48 size: 7071
-------------------------------------------------------------------



Скачать Рим.Rome.(сезоны.01-02).(Майкл.Эптид.Аллен.Коултер.и.др.).[2005-2007.боевик.драма.мелодрама.военный.история.HDRip-AVC].[MVO.(Lostfilm)]+[DVO.(НТВ+)].torrent без регистрации
Золото ЗОЛОТАЯ РАЗДАЧА! СКАЧАННОЕ НЕ ЗАСЧИТЫВАЕТСЯ! Золото
Дата: Зарегистрирован   [ Тип: внутренний ] Как тут cкачать?
MAGNET ссылка
MAGNET ссылка


Скачать .torrent

40 KB

Статус: проверено DHT
Скачан: торрент - 208 раз, раздача полностью - 45 раз
Размер: 26,53 GB
Оценка:  - (Голосов: 0)
Поблагодарили: 2
Поделиться ссылкой на эту раздачу с друзьями:
В контактеFacebookОдноклассникиTwitterLivejournalМой МирLiveinternet
 

 
Показать сообщения:    


Вы не можете начинать темы
Вы не можете отвечать на сообщения
Вы не можете редактировать свои сообщения
Вы не можете удалять свои сообщения
Вы не можете голосовать в опросах
Вы не можете прикреплять файлы к сообщениям
Вы можете скачивать файлы