Loading...
Error

Скачать Игра престолов / Game of Thrones (сезон 03) (Алан Тейлор, Даниэль Минахан и др.) [2013, фэнтези, драма, приключения, BDRip] [720p] 2x[MVO (LostFilm, AlexFilm)] торрент без регистрации

 
Статистика раздачи
Размер:  26,12 GB   |    Скачан:  175 раз
Сидов:  1  [  0 KB/s  ]  
 
Автор Сообщение

МихаНЕзатор

[] 

Информация о фильме
Название: Игра престолов
Оригинальное название: Game of Thrones
Год выхода: 2013
Жанр: фэнтези, драма, приключения
Режиссер: Алан Тейлор, Даниэль Минахан, Дэвид Наттер, Брайан Кирк, Тимоти Ван Паттен, Дэвид Петрарка

В ролях: Лена Хиди, Питер Динклэйдж, Мишель Фэйрли, Эмилия Кларк, Кит Харингтон, Николай Костер-Валдау, Иэн Глен, Эйден Гиллен, Элфи Оуэн-Аллен, Мэйси Уильямс, Софи Тернер, Джек Глисон, Исаак Хемпстид-Райт, Ричард Мэдден, Джером Флинн, Конлет Хилл, Дональд Самптер, Рори МакКанн, Амрита Ачария, Чарльз Дэнс, Джон Брэдли, Кристиан Нэйрн, Сибель Кекилли, Джеймс Космо, Стивен Диллэйн, Гетин Энтони, Гвендолин Кристи, Натали Дормер, Уна Чаплин, Нонсо Анози, Роуз Лесли, Оуэн Тил, Уилко Джонсон, Питер Вон

О фильме: «Игра престолов» - не просто приключенческий сериал, это средневековая легенда, исполненная героизма и мужества, хитрости и коварства, легенда, в которой маленькие и слабые находят силы противостоять страшному врагу, а сильные и могущественные проигрывают коварству придворных интриганов. Не позвольте тому, что сериал исполнен в жанре фэнтези, отпугнуть вас, поскольку вас очарует смесь исторической драмы с мифологией, в которой найдутся все приятные зрителю элементы - война, честь, гордыня, страсть, власть и даже юмор. В Престолах этого сполна, а ещё они блещут необычным повествованием, мощным сценарием, превосходной актёрской игрой и сногсшибательными визуальными эффектами.




Страна: США, Великобритания
Студия: Home Box Office (HBO), Television 360, Grok! Studio, Generator Entertainment, Bighead Littlehead
Продолжительность: 10 x ~ 00:55:00
Перевод: Профессиональный многоголосый

Файл
Кодек: MPEG-4 AVC
Качество: BDRip 720p
Видео: ~ 5200 Кбит/с, 1280x720, 23.976 кадр/с
Звук:
Русский 1 (АС3, 6 ch, 384 Кбит/с) Профессиональный многоголосый [LostFilm]
Русский 2 (АС3, 6 ch, 384 Кбит/с) Профессиональный многоголосый [AlexFilm]
Английский (АС3, 6 ch, 640 Кбит/с)
Субтитры:
русские (7kingdoms, AmberTeam и форсированные), английские (полные и форсированные)
Примечание: форсированные субтитры предназначены для диалогов на валирийском языке, которые не переведены в озвучке AlexFilm и оригинальной звуковой дорожке

Релиз от: видеоряд HDWig, работа со звуком becasiana

АНОНСЫ ПОПУЛЯРНЫХ РАЗДАЧ
General
Unique ID : 248040464636968178899579066637401086287 (0xBA9ADB177078EFFE9DC2B200AEFE594F)
Complete name : G:MKVGame.of.Thrones.S03.2013.BluRay.720p.x264Game.of.Thrones.S03.E06.2013.BluRay.720p.x264.mkv
Format : Matroska
Format version : Version 2
File size : 2.56 GiB
Duration : 53mn 22s
Overall bit rate : 6 871 Kbps
Movie name : Episode 6: Подъем / The Climb
Encoded date : UTC 2014-03-08 19:54:51
Writing application : mkvmerge v6.8.0 ('Theme for Great Cities') 32bit built on Mar 2 2014 21:27:07
Writing library : libebml v1.3.0 + libmatroska v1.4.1

Video
ID : 1
Format : AVC
Format/Info : Advanced Video Codec
Format profile : High@L4.1
Format settings, CABAC : Yes
Format settings, ReFrames : 9 frames
Codec ID : V_MPEG4/ISO/AVC
Duration : 53mn 22s
Bit rate : 5 326 Kbps
Width : 1 280 pixels
Height : 720 pixels
Display aspect ratio : 16:9
Frame rate mode : Constant
Frame rate : 23.976 fps
Color space : YUV
Chroma subsampling : 4:2:0
Bit depth : 8 bits
Scan type : Progressive
Bits/(Pixel*Frame) : 0.241
Stream size : 1.99 GiB (78%)
Title : The Climb
Writing library : x264 core 140 r2377+40 929f149 tMod [8-bit@4:2:0 X86_64]
Encoding settings : cabac=1 / ref=9 / deblock=1:-3:-3 / analyse=0x3:0x113 / me=umh / subme=11 / psy=1 / fade_compensate=0.00 / psy_rd=1.00:0.00 / mixed_ref=1 / me_range=32 / chroma_me=1 / trellis=2 / 8x8dct=1 / cqm=0 / deadzone=21,11 / fast_pskip=0 / chroma_qp_offset=-2 / threads=18 / lookahead_threads=3 / sliced_threads=0 / nr=0 / decimate=0 / interlaced=0 / bluray_compat=0 / constrained_intra=0 / fgo=0 / bframes=8 / b_pyramid=2 / b_adapt=2 / b_bias=0 / direct=3 / weightb=1 / open_gop=0 / weightp=2 / keyint=240 / keyint_min=24 / scenecut=40 / intra_refresh=0 / rc=crf / mbtree=0 / crf=16.8000 / qcomp=0.70 / qpmin=0:0:0 / qpmax=69:69:69 / qpstep=4 / ip_ratio=1.20 / pb_ratio=1.20 / aq=4:0.85 / aq-sensitivity=10.00 / aq-factor=1.00:1.00:1.00 / aq2=0 / aq3=0
Language : English
Default : Yes
Forced : No

Audio #1
ID : 2
Format : AC-3
Format/Info : Audio Coding 3
Mode extension : CM (complete main)
Format settings, Endianness : Big
Codec ID : A_AC3
Duration : 53mn 22s
Bit rate mode : Constant
Bit rate : 384 Kbps
Channel(s) : 6 channels
Channel positions : Front: L C R, Side: L R, LFE
Sampling rate : 48.0 KHz
Bit depth : 16 bits
Compression mode : Lossy
Stream size : 147 MiB (6%)
Title : MVO LostFilm @ AC3 5.1 384 kbps
Language : Russian
Default : Yes
Forced : No

Audio #2
ID : 3
Format : AC-3
Format/Info : Audio Coding 3
Mode extension : CM (complete main)
Format settings, Endianness : Big
Codec ID : A_AC3
Duration : 53mn 22s
Bit rate mode : Constant
Bit rate : 384 Kbps
Channel(s) : 6 channels
Channel positions : Front: L C R, Side: L R, LFE
Sampling rate : 48.0 KHz
Bit depth : 16 bits
Compression mode : Lossy
Stream size : 147 MiB (6%)
Title : MVO AlexFilm @ AC3 5.1 384 kbps
Language : Russian
Default : No
Forced : No

Audio #3
ID : 4
Format : AC-3
Format/Info : Audio Coding 3
Mode extension : CM (complete main)
Format settings, Endianness : Big
Codec ID : A_AC3
Duration : 53mn 22s
Bit rate mode : Constant
Bit rate : 640 Kbps
Channel(s) : 6 channels
Channel positions : Front: L C R, Side: L R, LFE
Sampling rate : 48.0 KHz
Bit depth : 16 bits
Compression mode : Lossy
Stream size : 244 MiB (9%)
Title : Original @ AC3 5.1 640 kbps
Language : English
Default : No
Forced : No

Text #1
ID : 5
Format : ASS
Codec ID : S_TEXT/ASS
Codec ID/Info : Advanced Sub Station Alpha
Compression mode : Lossless
Title : Forced
Language : Russian
Default : No
Forced : No

Text #2
ID : 6
Format : UTF-8
Codec ID : S_TEXT/UTF8
Codec ID/Info : UTF-8 Plain Text
Title : 7kingdoms
Language : Russian
Default : No
Forced : No

Text #3
ID : 7
Format : UTF-8
Codec ID : S_TEXT/UTF8
Codec ID/Info : UTF-8 Plain Text
Title : AmberTear
Language : Russian
Default : No
Forced : No

Text #4
ID : 8
Format : UTF-8
Codec ID : S_TEXT/UTF8
Codec ID/Info : UTF-8 Plain Text
Language : English
Default : No
Forced : No

Text #5
ID : 9
Format : UTF-8
Codec ID : S_TEXT/UTF8
Codec ID/Info : UTF-8 Plain Text
Title : Forced
Language : English
Default : No
Forced : No



Скачать Игра.престолов.Game.of.Thrones.(сезон.03).(Алан.Тейлор.Даниэль.Минахан.и.др.).[2013.фэнтези.драма.приключения.BDRip].[720p].2x[MVO.(LostFilm.AlexFilm)].torrent без регистрации
Золото ЗОЛОТАЯ РАЗДАЧА! СКАЧАННОЕ НЕ ЗАСЧИТЫВАЕТСЯ! Золото
Дата: Зарегистрирован   [ Тип: внутренний ] Как тут cкачать?
MAGNET ссылка
MAGNET ссылка


Скачать .torrent

132 KB

Статус: проверено DHT
Скачан: торрент - 175 раз, раздача полностью - 277 раз
Размер: 26,12 GB
Оценка:  5 (Голосов: 5)
Поблагодарили: 6
Поделиться ссылкой на эту раздачу с друзьями:
В контактеFacebookОдноклассникиTwitterLivejournalМой МирLiveinternet
 

 

bert19

[] 

А Remux не ожидается? Нигде нету :(
 

МихаНЕзатор

[] 

У меня на этот счёт не информации
 
Показать сообщения:    


Вы не можете начинать темы
Вы не можете отвечать на сообщения
Вы не можете редактировать свои сообщения
Вы не можете удалять свои сообщения
Вы не можете голосовать в опросах
Вы не можете прикреплять файлы к сообщениям
Вы можете скачивать файлы