Loading...
Error

Скачать Борджиа / The Borgias (сезон 03) (Кари Скогланд) [2013, драма, HDTVRip] [Sub] торрент без регистрации

 
Статистика раздачи
Размер:  4,03 GB   |    Скачан:  420 раз
Сидов:  1  [  0 KB/s  ]  
 
Автор Сообщение

МихаНЕзатор

[] 

Год выпуска: 2013
Страна: Канада, Ирландия, Венгрия
Жанр: драма
Продолжительность: ~50 мин.
Перевод: Субтитры
Субтитры: Русские

Режиссёр: Кари Скогланд

В ролях: Джереми Айронс, Франсуа Арно , Холлидей Грейнджер ,Лотте Вербеек, Джоанн Уолли, Шон Харрис , Туре Линдхардт , Джина МакКи , Питер Салливан и др.

Описание: Борджиа сериал об одном из важнейших исторических периодов эпохе Возрождения и открытии Нового света. Современники да Винчи, Микеланджело и семьи Медичи, Борджиа были неоднозначными и известными фигурами не столько из-за того, что творили неслыханное, сколько потому, что преуспели в этом больше своих соперников.

Качество: HDTVRip
Формат: MP4
Видео кодек: MPEG4
Аудио кодек: AAC
Видео: 720x402, 23.976 fps, MPEG4 Video (H264), 834 kbps avg, 0.120 bit/pixel
Аудио: Advanced Audio Codec , 48 kHz, 2ch , 124Kbps |Original| Английский



19.06.2013 г. торент обновлён, добавлена 10 заключительная серия!

General
Complete name : C:UsersLeNixDesktopthe.borgias.s03e01.hdtv.x264-2hd.mp4
Format : MPEG-4
Format profile : Base Media
Codec ID : isom
File size : 356 MiB
Duration : 51mn 47s
Overall bit rate mode : Variable
Overall bit rate : 962 Kbps
Encoded date : UTC 2013-04-15 02:52:50
Tagged date : UTC 2013-04-15 02:52:50
Video #1
ID : 1
Format : AVC
Format/Info : Advanced Video Codec
Format profile : High@L3.1
Format settings, CABAC : Yes
Format settings, ReFrames : 5 frames
Codec ID : avc1
Codec ID/Info : Advanced Video Coding
Duration : 51mn 46s
Bit rate : 834 Kbps
Maximum bit rate : 4 497 Kbps
Width : 720 pixels
Height : 402 pixels
Display aspect ratio : 16:9
Frame rate mode : Constant
Frame rate : 23.976 fps
Color space : YUV
Chroma subsampling : 4:2:0
Bit depth : 8 bits
Scan type : Progressive
Bits/(Pixel*Frame) : 0.120
Stream size : 309 MiB (87%)
Writing library : x264 core 130 r2273 b3065e6
Encoding settings : cabac=1 / ref=5 / deblock=1:0:0 / analyse=0x3:0x113 / me=umh / subme=8 / psy=1 / psy_rd=1.00:0.00 / mixed_ref=1 / me_range=16 / chroma_me=1 / trellis=1 / 8x8dct=1 / cqm=0 / deadzone=21,11 / fast_pskip=1 / chroma_qp_offset=-2 / threads=6 / lookahead_threads=1 / sliced_threads=0 / nr=0 / decimate=1 / interlaced=0 / bluray_compat=0 / constrained_intra=0 / bframes=3 / b_pyramid=2 / b_adapt=2 / b_bias=0 / direct=3 / weightb=1 / open_gop=0 / weightp=2 / keyint=250 / keyint_min=23 / scenecut=40 / intra_refresh=0 / rc_lookahead=50 / rc=crf / mbtree=1 / crf=19.0 / qcomp=0.60 / qpmin=0 / qpmax=69 / qpstep=4 / ip_ratio=1.40 / aq=1:1.00
Encoded date : UTC 2013-04-15 02:52:50
Tagged date : UTC 2013-04-15 02:52:53
Matrix coefficients : BT.709
Audio #2
ID : 2
Format : AAC
Format/Info : Advanced Audio Codec
Format profile : LC
Codec ID : 40
Duration : 51mn 47s
Bit rate mode : Variable
Bit rate : 124 Kbps
Maximum bit rate : 139 Kbps
Channel(s) : 2 channels
Channel positions : Front: L R
Sampling rate : 48.0 KHz
Compression mode : Lossy
Stream size : 45.9 MiB (13%)
Encoded date : UTC 2013-04-15 02:52:52
Tagged date : UTC 2013-04-15 02:52:53



Скачать Борджиа.The.Borgias.(сезон.03).(Кари.Скогланд).[2013.драма.HDTVRip].[Sub].torrent без регистрации
Золото ЗОЛОТАЯ РАЗДАЧА! СКАЧАННОЕ НЕ ЗАСЧИТЫВАЕТСЯ! Золото
Дата: Зарегистрирован   [ Тип: внутренний ] Как тут cкачать?
MAGNET ссылка
MAGNET ссылка


Скачать .torrent

12 KB

Статус: проверено DHT
Скачан: торрент - 420 раз, раздача полностью - 13 раз
Размер: 4,03 GB
Оценка:  - (Голосов: 0)
Поблагодарили: 1
Поделиться ссылкой на эту раздачу с друзьями:
В контактеFacebookОдноклассникиTwitterLivejournalМой МирLiveinternet
 

 

МихаНЕзатор

[] 

Раздача обновлена.
 
Показать сообщения:    


Вы не можете начинать темы
Вы не можете отвечать на сообщения
Вы не можете редактировать свои сообщения
Вы не можете удалять свои сообщения
Вы не можете голосовать в опросах
Вы не можете прикреплять файлы к сообщениям
Вы можете скачивать файлы