Loading...
Error

Скачать Борджиа / The Borgias (сезон 02) (Нил Джордан, Саймон Селлан Джоунс) [2012, историческая драма, HDTV] [720p] [LostFilm] торрент без регистрации

 
Статистика раздачи
Размер:  16,19 GB   |    Скачан:  179 раз
Сидов:  1  [  0 KB/s  ]  
 
Автор Сообщение

МихаНЕзатор

[] 

Информация о фильме
Название: Борджиа
Оригинальное название: The Borgias
Год выхода: 2012
Жанр: историческая драма
Режиссер: Нил Джордан, Саймон Селлан Джоунс
В ролях: Джереми Айронс, Дэвид Оакес , Франсуа Арно , Холлидей Грейнджер ,Лотте Вербеек, Джоанн Уолли, Мишель Мюллер и др.

О фильме: Сериал повествует о знаменитом семействе Борджиа, которое достигло вершин власти в Италии в период Возрождения. Действие происходит в Риме. Слоган сериала: «Секс. Власть. Убийство. Аминь» отражает царящие в тот период порядки на Святом Престоле. Именно так пришел к власти новый римский папа - Александр VI, в миру Родриго Борджиа.



Страна: Канада, Ирландия, Венгрия
Продолжительность: ~ 00:55:00
Перевод: Профессиональный многоголосый закадровый (LostFilm)

Файл
Кодек: H264
Качество: HDTV 720p
Видео: MPEG4 Video (H264) 1280x720 23.976fps
Звук: Dolby AC3 44100Hz stereo

Добавлена 5-10 серия: 22.06.2012

01. Бык Борджиа / The Borgia Bull
02. Паоло / Paolo
03. Красивый обман / The Beautiful Deception
04. Бродячие псы / Stray Dogs
05. Выбор / The Choice
06. День пепла / Day of Ashes
07. Осада в Форли / The Siege at Forli
08. Правда или Ложь / Truth and Lies
09. Мир чудес / World of Wonders
10. Исповедь / The Confession
General
Unique ID : 200540014272640726170322359326549737610 (0x96DE9A13130BDE58BD8345BC7F30008A)
Complete name : E:СериалыBorgias.S02E01.HD.rus.LostFilm.TV.mkv
Format : Matroska
Format version : Version 2
File size : 1.64 GiB
Duration : 52mn 56s
Overall bit rate : 4 427 Kbps
Encoded date : UTC 2012-04-14 17:23:06
Writing application : mkvmerge v4.5.0 ('Speed of Light') сборка от Feb 1 2011 02:10:32
Writing library : libebml v1.2.0 + libmatroska v1.1.0

Video
ID : 2
Format : AVC
Format/Info : Advanced Video Codec
Format profile : High@L3.1
Format settings, CABAC : Yes
Format settings, ReFrames : 4 frames
Codec ID : V_MPEG4/ISO/AVC
Duration : 52mn 56s
Bit rate : 4 041 Kbps
Width : 1 280 pixels
Height : 720 pixels
Display aspect ratio : 16:9
Frame rate : 23.976 fps
Color space : YUV
Chroma subsampling : 4:2:0
Bit depth : 8 bits
Scan type : Progressive
Bits/(Pixel*Frame) : 0.183
Stream size : 1.46 GiB (89%)
Writing library : x264 core 112 r1834 a51816a
Encoding settings : cabac=1 / ref=1 / deblock=1:0:0 / analyse=0x3:0x113 / me=hex / subme=7 / psy=1 / psy_rd=1.00:0.00 / mixed_ref=0 / me_range=16 / chroma_me=1 / trellis=1 / 8x8dct=1 / cqm=0 / deadzone=21,11 / fast_pskip=1 / chroma_qp_offset=-2 / threads=6 / sliced_threads=0 / nr=0 / decimate=1 / interlaced=0 / constrained_intra=0 / bframes=3 / b_pyramid=2 / b_adapt=1 / b_bias=0 / direct=1 / weightb=1 / open_gop=0 / weightp=2 / keyint=250 / keyint_min=25 / scenecut=40 / intra_refresh=0 / rc_lookahead=40 / rc=2pass / mbtree=1 / bitrate=4041 / ratetol=1.0 / qcomp=0.60 / qpmin=0 / qpmax=51 / qpstep=4 / cplxblur=20.0 / qblur=0.5 / ip_ratio=1.40 / aq=1:1.00
Default : Yes
Forced : No

Audio
ID : 1
Format : AC-3
Format/Info : Audio Coding 3
Mode extension : CM (complete main)
Codec ID : A_AC3
Duration : 52mn 56s
Bit rate mode : Constant
Bit rate : 384 Kbps
Channel(s) : 2 channels
Channel positions : Front: L R
Sampling rate : 44.1 KHz
Bit depth : 16 bits
Compression mode : Lossy
Stream size : 145 MiB (9%)
Language : Russian
Default : Yes
Forced : Yes
1. Открыть торрент.
2. Снять галки с тех файлов торрента, которые мы не хотим закачивать. Оставляем только на нужных нам файлах (файле).
3. Нажать О.К.
Раздача ведётся путём добавления новых серий; при каждом добавлении создаётся новый торрент. Чтобы начать докачку новой серии, пользователям необходимо сделать следующее:
(1) остановить скачивание,
(2) удалить старый торрент у себя из клиента (старые серии удалять не надо),
(3) скачать новый торрент и запустить его у себя в клиенте вместо старого, при этом указать клиенту путь в старую папку куда и должно происходить скачивание новых серий.

Ваш клиент при этом должен произвести хеширование (проверку) старой папки (если не производит сам - помогите ему сделать это), и будет докачивать только те серии которых у вас ещё нет. Старые серии при этом не удаляются, а продолжают раздаваться!

Eсли вы уже удалили старые серии, то предотвратить повторную закачку старых серий можно, отжав галочку в соответствующих местах при запуске нового торрента. По возможности, желательно не удалять старые серии как можно дольше чтобы релизёр не столько продолжал раздавать старые серии, а смог сконцентрироваться на новых.



Релиз от:



Скачать Борджиа.The.Borgias.(сезон.02).(Нил.Джордан.Саймон.Селлан.Джоунс).[2012.историческая.драма.HDTV].[720p].[LostFilm].torrent без регистрации
Золото ЗОЛОТАЯ РАЗДАЧА! СКАЧАННОЕ НЕ ЗАСЧИТЫВАЕТСЯ! Золото
Дата: Зарегистрирован   [ Тип: внутренний ] Как тут cкачать?
MAGNET ссылка
MAGNET ссылка


Скачать .torrent

42 KB

Статус: проверено DHT
Скачан: торрент - 179 раз, раздача полностью - 49 раз
Размер: 16,19 GB
Оценка:  - (Голосов: 0)
Поблагодарили: 0
Поделиться ссылкой на эту раздачу с друзьями:
В контактеFacebookОдноклассникиTwitterLivejournalМой МирLiveinternet
 

 
Показать сообщения:    


Вы не можете начинать темы
Вы не можете отвечать на сообщения
Вы не можете редактировать свои сообщения
Вы не можете удалять свои сообщения
Вы не можете голосовать в опросах
Вы не можете прикреплять файлы к сообщениям
Вы можете скачивать файлы