Loading...
Error

Скачать Клан Сопрано / The Sopranos (Сезон 1, серии 01-13 из 13) (Дэвид Чейз) [1999, драма, криминал, BDRip] [DUB] (Мост-Видео) торрент без регистрации

 
Статистика раздачи
Размер:  9,18 GB   |    Скачан:  350 раз
Сидов:  1  [  0 KB/s  ]  
 
Автор Сообщение

leon030982

[] 

Клан Сопрано / Семья Сопрано / The Sopranos (Сезон 1, серии 01-13 из 13)

Первый сезон



Год выпуска: 1999
Страна: США
Жанр: драма, криминал
Продолжительность: ~ 00:52:00
Перевод: полное дублирование
Субтитры: нет
Создатель: Дэвид Чейз

Режиссёры: Дэвид Чейз, Дэниэл Эттиэс, Ник Гомез, Джон Паттерсон, Аллен Култер, Алан Тейлор, Лоррэйн Сенна, Тимоти Ван Паттен, Энди Волк, Мэттью Пенн, Генри Брончтейн

В ролях: Джеймс Гандольфини, Лоррейн Бракко, Эди Фэлко, Майкл Империоли, Доминик Кьянезе, Винсент Пасторе, Стив Ван Зандт, Тони Сирико, Роберт Айлер, Джэми-Линн Сиглер, Нэнси Маршанд

Роли дублировали: Владимир Антоник, Наталья Казначеева, Ольга Кузнецова, Борис Быстров, Виктория Радунская, Татьяна Канаева, Ирина Гришина, Алексей Золотницкий, Юрий Саранцев, Дмитрий Филимонов, Дальвин Щербаков, Андрей Казанцев, Владимир Конкин, Людмила Ильина, Юрий Маляров, Александр Новиков, Виктория Радунская, Сергей Чекан

Описание:
Повседневная жизнь современного Крестного отца: его мысли — стремительны, действия — решительны, а юмор — черен. Мафиозный босс Северного Джерси Тони Сопрано успешно справляется с проблемами «Семьи».
Но вот собственная семья немного подкачала: дети от рук отбились, брак — под угрозой, мамаша — пилит. Он надеется на помощь психиатра, но как тому рассказать обо всех своих проблемах, если связан «Омертой» — обетом молчания, нарушать который нельзя под страхом смерти?

IMDB User Rating→: 9.3/10 (67,661 votes)
Рейтинг фильма КиноПоиск.Ru→: 8.700 (7 939 голосов)

За оцифровку кассет с дубляжом спасибо Fikaloid;
Видео , спасибо poleee.

Качество: BDRip (исходник: Blu-ray Remux/1080p)
Контейнер: AVI
Видеопоток: 720x400 (16:9), 23.976 fps, XviD ~1600-1900 kbps
Аудиопоток: AC3 2.0, 48 kHz, 192 kbps | дубляж («Мост-Видео») [VHS]
Сэмпл: multi-up→, narod→, ifolder→

Код:

General
Complete name                            : The.Sopranos.S01.1999.BDRip.XviD.AC3\The.Sopranos.S01E01.1999.BDRip.XviD.AC3.avi
Format                                   : AVI
Format/Info                              : Audio Video Interleave
File size                                : 867 MiB
Duration                                 : 1h 0mn
Overall bit rate                         : 2 019 Kbps
Writing application                      : VirtualDubMod 1.5.10.2 (build 2540/release)
Writing library                          : VirtualDubMod build 2540/release
Video
ID                                       : 0
Format                                   : MPEG-4 Visual
Format profile                           : Advanced Simple@L5
Format settings, BVOP                    : 1
Format settings, QPel                    : No
Format settings, GMC                     : No warppoints
Format settings, Matrix                  : Custom
Codec ID                                 : XVID
Codec ID/Hint                            : XviD
Duration                                 : 1h 0mn
Bit rate                                 : 1 817 Kbps
Width                                    : 720 pixels
Height                                   : 400 pixels
Display aspect ratio                     : 16:9
Frame rate                               : 23.976 fps
Color space                              : YUV
Chroma subsampling                       : 4:2:0
Bit depth                                : 8 bits
Scan type                                : Progressive
Compression mode                         : Lossy
Bits/(Pixel*Frame)                       : 0.263
Stream size                              : 780 MiB (90%)
Writing library                          : XviD 1.2.1 (UTC 2008-12-04)
Audio
ID                                       : 1
Format                                   : AC-3
Format/Info                              : Audio Coding 3
Mode extension                           : CM (complete main)
Format settings, Endianness              : Big
Codec ID                                 : 2000
Duration                                 : 1h 0mn
Bit rate mode                            : Constant
Bit rate                                 : 192 Kbps
Channel(s)                               : 2 channels
Channel positions                        : Front: L R
Sampling rate                            : 48.0 KHz
Bit depth                                : 16 bits
Compression mode                         : Lossy
Stream size                              : 82.4 MiB (10%)
Alignment                                : Split accross interleaves
Interleave, duration                     : 42 ms (1.00 video frame)
Interleave, preload duration             : 500 ms
Внимание! Раздача ведётся путём добавления новых серий; при каждом добавлении создаётся новый торрент. Чтобы начать докачку новой серии, пользователям необходимо сделать следующее:
(1) остановить скачивание,
(2) удалить старый торрент у себя из клиента (старые серии удалять не надо),
(3) скачать новый торрент и запустить его у себя в клиенте вместо старого, при этом указать клиенту путь в старую папку куда и должно происходить скачивание новых серий.
Ваш клиент при этом должен произвести хеширование (проверку) старой папки (если не производит сам - помогите ему сделать это), и будет докачивать только те серии которых у вас ещё нет. Старые серии при этом не удаляются, а продолжают раздаваться!
Eсли вы уже удалили старые серии, то предотвратить повторную закачку старых серий можно, отжав галочку в соответствующих местах при запуске нового торрента. По возможности, желательно не удалять старые серии как можно дольше чтобы релизёр не столько продолжал раздавать старые серии, а смог сконцентрироваться на новых.



Скачать Клан.Сопрано.The.Sopranos.(Сезон.1.серии.01-13.из.13).(Дэвид.Чейз).[1999.драма.криминал.BDRip].[DUB].(Мост-Видео).torrent без регистрации
Золото ЗОЛОТАЯ РАЗДАЧА! СКАЧАННОЕ НЕ ЗАСЧИТЫВАЕТСЯ! Золото
Дата: Зарегистрирован   [ Тип: внутренний ] Как тут cкачать?
MAGNET ссылка
MAGNET ссылка


Скачать .torrent

47 KB

Статус: проверено DHT
Скачан: торрент - 350 раз, раздача полностью - 146 раз
Размер: 9,18 GB
Оценка:  5 (Голосов: 1)
Поблагодарили: 1
Поделиться ссылкой на эту раздачу с друзьями:
В контактеFacebookОдноклассникиTwitterLivejournalМой МирLiveinternet
 

 
Показать сообщения:    


Вы не можете начинать темы
Вы не можете отвечать на сообщения
Вы не можете редактировать свои сообщения
Вы не можете удалять свои сообщения
Вы не можете голосовать в опросах
Вы не можете прикреплять файлы к сообщениям
Вы можете скачивать файлы