Loading...
Error

/ The Sopranos ( 1, 01-13 13) ( ) [1999, , , BDRip] [DUB] (-)

9,18 GB   |    :  377
1  [  0 KB/s  ]  
 
 
 

leon030982

[] 

/ / The Sopranos ( 1, 01-13 13)




: 1999
:
: ,
: ~ 00:52:00
:
:
:

: , , , , , , , , , ,

: , , , , , , , , , - ,

: , , , , , , , , , , , , , , , , ,

:
: , , . .
: , , . , , , ?

IMDB User Rating→: 9.3/10 (67,661 votes)
.Ru→: 8.700 (7 939 )

Fikaloid;
, poleee.

: BDRip (: Blu-ray Remux/1080p)
: AVI
: 720x400 (16:9), 23.976 fps, XviD ~1600-1900 kbps
: AC3 2.0, 48 kHz, 192 kbps | (-) [VHS]
: multi-up→, narod→, ifolder→

:

General
Complete name : The.Sopranos.S01.1999.BDRip.XviD.AC3\The.Sopranos.S01E01.1999.BDRip.XviD.AC3.avi
Format : AVI
Format/Info : Audio Video Interleave
File size : 867 MiB
Duration : 1h 0mn
Overall bit rate : 2 019 Kbps
Writing application : VirtualDubMod 1.5.10.2 (build 2540/release)
Writing library : VirtualDubMod build 2540/release
Video
ID : 0
Format : MPEG-4 Visual
Format profile : Advanced Simple@L5
Format settings, BVOP : 1
Format settings, QPel : No
Format settings, GMC : No warppoints
Format settings, Matrix : Custom
Codec ID : XVID
Codec ID/Hint : XviD
Duration : 1h 0mn
Bit rate : 1 817 Kbps
Width : 720 pixels
Height : 400 pixels
Display aspect ratio : 16:9
Frame rate : 23.976 fps
Color space : YUV
Chroma subsampling : 4:2:0
Bit depth : 8 bits
Scan type : Progressive
Compression mode : Lossy
Bits/(Pixel*Frame) : 0.263
Stream size : 780 MiB (90%)
Writing library : XviD 1.2.1 (UTC 2008-12-04)
Audio
ID : 1
Format : AC-3
Format/Info : Audio Coding 3
Mode extension : CM (complete main)
Format settings, Endianness : Big
Codec ID : 2000
Duration : 1h 0mn
Bit rate mode : Constant
Bit rate : 192 Kbps
Channel(s) : 2 channels
Channel positions : Front: L R
Sampling rate : 48.0 KHz
Bit depth : 16 bits
Compression mode : Lossy
Stream size : 82.4 MiB (10%)
Alignment : Split accross interleaves
Interleave, duration : 42 ms (1.00 video frame)
Interleave, preload duration : 500 ms
! ; . , :
(1) ,
(2) ( ),
(3) , .
() ( - ), . , !
E , , . , , .




..The.Sopranos.(.1..01-13..13).(.).[1999...BDRip].[DUB].(-).torrent
  ! ! 
:   [ : ] c?
MAGNET
MAGNET


.torrent

47 KB

: DHT
: - 377 , - 159
: 9,18 GB
5 (: 1)
: 1
:
 FacebookTwitterLivejournal Liveinternet
 

 
: