Loading...
Error

Скачать Анатомия страсти / Grey's Anatomy (10x01-10) (Роб Корн) [2013, драма, мелодрама, HDTVRip] [720р] [VO (Tomas)] торрент без регистрации

 
Статистика раздачи
Размер:  14,64 GB   |    Скачан:  270 раз
Сидов:  1  [  0 KB/s  ]  
 
Автор Сообщение

МихаНЕзатор

[] 

Анатомия Страсти / Анатомия Грей / Grey's Anatomy


Год выпуска: 2013
Страна: США
Жанр: Драма
Продолжительность: ~ 00:45:00
Перевод: Любительский (одноголосый закадровый) Tomas
Русские субтитры: нет
Режиссёр: Шонда Раймс

В ролях: Эллен Помпео (Мередит Грей), Сандра О (Кристина Янг), Джастин Чэмберс (Алекс Карев), Патрик Дэмпси (Дерек Шепард), Сара Рамирез (Кэлли Торрес), Джеймс Пикенс мл. (Шеф Веббер), Чэндра Уилсон (Миранда Бэйли), Кевин МакКидд (Оуэн Хант), Джессика Кэпшоу (Аризона Роббинс) и др.

Описание: Продолжение знаменитой медицинской драмы о работе и личных отношениях хирургов сиэтлской больницы. Каждый день наполнен болью и счастьем, ссорами и примирениями, сложными дилеммами и необходимостью принять моментальное решение от которого зависит жизнь человека. В центре сюжета хирург - Мередит...

Качество: WEB-DL 720p
Формат: MKV
Видео кодек: AVC
Аудио кодек: AC3
Видео: AVC, 1280x720 (1.778), 23.976 fps, 3978 kbps, 0.18 bit/pixel
Аудио #1: AC3, 384 kbps, 6 channels, 48.0 KHz (Rus)
Аудио #2: AC3, 384 kbps, 6 channels, 48.0 KHz (Eng)

04.12.2013 г. торент обновлён, добавлена 10 серия!

Complete name : Greys.Anatomy.S10E01.720p.WEB-DL.Rus.Eng-Tomas.mkv
Format : Matroska
Format version : Version 4 / Version 2
File size : 1.46 GiB
Duration : 43mn 4s
Overall bit rate : 4 842 Kbps
Encoded date : UTC 2013-10-08 19:04:11
Writing application : mkvmerge v6.1.0 ('Old Devil') built on Mar 4 2013 09:10:42
Writing library : libebml v1.3.0 + libmatroska v1.4.0

Video
ID : 1
Format : AVC
Format/Info : Advanced Video Codec
Format profile : High@L3.1
Format settings, CABAC : No
Format settings, ReFrames : 2 frames
Codec ID : V_MPEG4/ISO/AVC
Duration : 43mn 4s
Bit rate : 3 978 Kbps
Width : 1 280 pixels
Height : 720 pixels
Display aspect ratio : 16:9
Frame rate mode : Constant
Frame rate : 23.976 fps
Color space : YUV
Chroma subsampling : 4:2:0
Bit depth : 8 bits
Scan type : Progressive
Bits/(Pixel*Frame) : 0.180
Stream size : 1.20 GiB (82%)
Language : English
Default : Yes
Forced : No
Color primaries : BT.709
Transfer characteristics : BT.709
Matrix coefficients : BT.709

Audio #1
ID : 2
Format : AC-3
Format/Info : Audio Coding 3
Mode extension : CM (complete main)
Format settings, Endianness : Big
Codec ID : A_AC3
Duration : 43mn 4s
Bit rate mode : Constant
Bit rate : 384 Kbps
Channel(s) : 6 channels
Channel positions : Front: L C R, Side: L R, LFE
Sampling rate : 48.0 KHz
Bit depth : 16 bits
Compression mode : Lossy
Stream size : 118 MiB (8%)
Language : Russian
Default : Yes
Forced : No

Audio #2
ID : 3
Format : AC-3
Format/Info : Audio Coding 3
Mode extension : CM (complete main)
Format settings, Endianness : Big
Codec ID : A_AC3
Duration : 43mn 4s
Bit rate mode : Constant
Bit rate : 384 Kbps
Channel(s) : 6 channels
Channel positions : Front: L C R, Side: L R, LFE
Sampling rate : 48.0 KHz
Bit depth : 16 bits
Compression mode : Lossy
Stream size : 118 MiB (8%)
Language : English
Default : No
Forced : No

Внимание! Раздача ведётся путём добавления новых серий; при каждом добавлении создаётся новый торрент. Чтобы начать докачку новой серии, пользователям необходимо сделать следующее:
(1) остановить скачивание,
(2) удалить старый торрент у себя из клиента (старые серии удалять не надо),
(3) скачать новый торрент и запустить его у себя в клиенте вместо старого, при этом указать клиенту путь в старую папку куда и должно происходить скачивание новых серий.

Ваш клиент при этом должен произвести хеширование (проверку) старой папки (если не производит сам - помогите ему сделать это), и будет докачивать только те серии которых у вас ещё нет. Старые серии при этом не удаляются, а продолжают раздаваться!

Eсли вы уже удалили старые серии, то предотвратить повторную закачку старых серий можно, отжав галочку в соответствующих местах при запуске нового торрента. По возможности, желательно не удалять старые серии как можно дольше чтобы релизёр не столько продолжал раздавать старые серии, а смог сконцентрироваться на новых.



Скачать Анатомия.страсти.Grey's.Anatomy.(10x01-10).(Роб.Корн).[2013.драма.мелодрама.HDTVRip].[720р].[VO.(Tomas)].torrent без регистрации
Золото ЗОЛОТАЯ РАЗДАЧА! СКАЧАННОЕ НЕ ЗАСЧИТЫВАЕТСЯ! Золото
Дата: Зарегистрирован   [ Тип: внутренний ] Как тут cкачать?
MAGNET ссылка
MAGNET ссылка


Скачать .torrent

74 KB

Статус: проверено DHT
Скачан: торрент - 270 раз, раздача полностью - 0 раз
Размер: 14,64 GB
Оценка:  5 (Голосов: 1)
Поблагодарили: 1
Поделиться ссылкой на эту раздачу с друзьями:
В контактеFacebookОдноклассникиTwitterLivejournalМой МирLiveinternet
 

 

МихаНЕзатор

[] 

Раздача обновлена
 
Показать сообщения:    


Вы не можете начинать темы
Вы не можете отвечать на сообщения
Вы не можете редактировать свои сообщения
Вы не можете удалять свои сообщения
Вы не можете голосовать в опросах
Вы не можете прикреплять файлы к сообщениям
Вы можете скачивать файлы