Loading...
Error

Скачать Хостел 2 / Hostel: Part II (Элай Рот / Eli Roth) [2007,ужасы, триллер, HDRip] [DUB] торрент без регистрации

 
Статистика раздачи
Размер:  1,46 GB   |    Скачан:  173 раза
Сидов:  1  [  0 KB/s  ]  
 
Автор Сообщение

Jenek

[] 

Информация о фильме
Название: Хостел 2
Оригинальное название: Hostel: Part II
Год выхода: 2007
Жанр: ужасы, триллер
Режиссер: Элай Рот / Eli Roth
В ролях: Лорен Джерман, Роджер Барт, Хизер Матараццо, Бижу Филлипс, Ричард Берджи, Вера Йорданова, Джей Эрнандез, Джордан Лэдд, Милан Князко, Эдвидж Фенек

О фильме:
Три девушки-студентки, путешествуя по Европе, решили подольше задержаться в Братиславе (Словакия). Сами того не ведая, они попадают в царство мяса и крови. Ведь одна из здешних гостиниц, в которую приезжают наши героини, таит мрачный секрет таинственную организацию, которая занимается пытками и убийствами. Сумеют ли девушки выбраться из этого кровавого ада живыми?


Страна: США
Студия: Raw Nerve, Next Entertainment, International Production Company
Продолжительность: 01:34:03
Перевод: Профессиональный (полное дублирование)

Файл
Кодек: XviD / AC-3
Качество: HDRip
Видео: XviD, 720x304 (2.35:1), 23.976 fps, 1 825 Kbps (0.348 bit/pixel)
Звук: AC-3, 48.0 KHz, 6 ch, 384 Kbps, CBR
General
Complete name : E:Hostel.2_DUB_1400_[Rutor.org].avi
Format : AVI
Format/Info : Audio Video Interleave
File size : 1.46 GiB
Duration : 1h 34mn
Overall bit rate : 2 218 Kbps
Movie name : Hostel 2 2007
Director : Petey [torrents.ru]
Genre : Horror
Writing application : VirtualDubMod 1.5.10.2 (build 2540/release)
Original source form/Name : Movie

Video
ID : 0
Format : MPEG-4 Visual
Format profile : Advanced Simple@L5
Format settings, BVOP : 1
Format settings, QPel : No
Format settings, GMC : No warppoints
Format settings, Matrix : Default (MPEG)
Codec ID : XVID
Codec ID/Hint : XviD
Duration : 1h 34mn
Bit rate : 1 825 Kbps
Width : 720 pixels
Height : 304 pixels
Display aspect ratio : 2.35:1
Frame rate : 23.976 fps
Color space : YUV
Chroma subsampling : 4:2:0
Bit depth : 8 bits
Scan type : Progressive
Compression mode : Lossy
Bits/(Pixel*Frame) : 0.348
Stream size : 1.20 GiB (82%)
Writing library : XviD 1.2.1 (UTC 2008-12-04)

Audio
ID : 1
Format : AC-3
Format/Info : Audio Coding 3
Mode extension : CM (complete main)
Codec ID : 2000
Duration : 1h 34mn
Bit rate mode : Constant
Bit rate : 384 Kbps
Channel(s) : 6 channels
Channel positions : Front: L C R, Side: L R, LFE
Sampling rate : 48.0 KHz
Bit depth : 16 bits
Compression mode : Lossy
Stream size : 258 MiB (17%)
Alignment : Split accross interleaves
Interleave, duration : 42 ms (1.00 video frame)
Interleave, preload duration : 500 ms



Скачать Хостел.2.Hostel.Part.II.(Элай.Рот.Eli.Roth).[2007.ужасы.триллер.HDRip].[DUB].torrent без регистрации
Золото ЗОЛОТАЯ РАЗДАЧА! СКАЧАННОЕ НЕ ЗАСЧИТЫВАЕТСЯ! Золото
Дата: Зарегистрирован   [ Тип: внутренний ] Как тут cкачать?
MAGNET ссылка
MAGNET ссылка


Скачать .torrent

15 KB

Статус: проверено DHT
Скачан: торрент - 173 раз, раздача полностью - 224 раз
Размер: 1,46 GB
Оценка:  5 (Голосов: 2)
Поблагодарили: 6
Поделиться ссылкой на эту раздачу с друзьями:
В контактеFacebookОдноклассникиTwitterLivejournalМой МирLiveinternet
 

 
Показать сообщения:    


Вы не можете начинать темы
Вы не можете отвечать на сообщения
Вы не можете редактировать свои сообщения
Вы не можете удалять свои сообщения
Вы не можете голосовать в опросах
Вы не можете прикреплять файлы к сообщениям
Вы можете скачивать файлы