Loading...
Error

Скачать Хостел 2 / Hostel: Part II (Элай Рот / Eli Roth) [2007,ужасы, триллер, HDRip] [DUB] торрент без регистрации

 
Статистика раздачи
Размер:  742 MB   |    Скачан:  142 раза

Полного источника не было: 6 месяцев

 
Автор Сообщение

Jenek

[] 

Информация о фильме
Название: Хостел 2
Оригинальное название: Hostel: Part II
Год выхода: 2007
Жанр: ужасы, триллер
Режиссер: Элай Рот / Eli Roth
В ролях: Лорен Джерман, Роджер Барт, Хизер Матараццо, Бижу Филлипс, Ричард Берджи, Вера Йорданова, Джей Эрнандез, Джордан Лэдд, Милан Князко, Эдвидж Фенек

О фильме:
Три девушки-студентки, путешествуя по Европе, решили подольше задержаться в Братиславе (Словакия). Сами того не ведая, они попадают в царство мяса и крови. Ведь одна из здешних гостиниц, в которую приезжают наши героини, таит мрачный секрет таинственную организацию, которая занимается пытками и убийствами. Сумеют ли девушки выбраться из этого кровавого ада живыми?


Страна: США
Студия: Raw Nerve, Next Entertainment, International Production Company
Продолжительность: 01:34:03
Перевод: Профессиональный (полное дублирование)

Файл
Кодек: XviD / MP3
Качество: HDRip
Видео: XviD, 688x288 (2.35:1), 23.976 fps, 965 Kbps (0.203 bit/pixel)
Звук: MP3, 48.0 KHz, 2 ch, 128 Kbps, CBR
General
Complete name : E:Hostel.2_DUB_745_[Rutor.org].avi
Format : AVI
Format/Info : Audio Video Interleave
File size : 742 MiB
Duration : 1h 34mn
Overall bit rate : 1 103 Kbps
Movie name : Hostel 2 2007
Director : Petey [torrents.ru]
Genre : Horror
Writing application : VirtualDubMod 1.5.10.2 (build 2540/release)
Original source form/Name : Movie

Video
ID : 0
Format : MPEG-4 Visual
Format profile : Advanced Simple@L5
Format settings, BVOP : 1
Format settings, QPel : No
Format settings, GMC : No warppoints
Format settings, Matrix : Default (MPEG)
Codec ID : XVID
Codec ID/Hint : XviD
Duration : 1h 34mn
Bit rate : 965 Kbps
Width : 688 pixels
Height : 288 pixels
Display aspect ratio : 2.40:1
Frame rate : 23.976 fps
Color space : YUV
Chroma subsampling : 4:2:0
Bit depth : 8 bits
Scan type : Progressive
Compression mode : Lossy
Bits/(Pixel*Frame) : 0.203
Stream size : 649 MiB (88%)
Writing library : XviD 1.2.1 (UTC 2008-12-04)

Audio
ID : 1
Format : MPEG Audio
Format version : Version 1
Format profile : Layer 3
Codec ID : 55
Codec ID/Hint : MP3
Duration : 1h 34mn
Bit rate mode : Constant
Bit rate : 128 Kbps
Channel(s) : 2 channels
Sampling rate : 48.0 KHz
Compression mode : Lossy
Stream size : 86.1 MiB (12%)
Alignment : Aligned on interleaves
Interleave, duration : 42 ms (1.00 video frame)
Interleave, preload duration : 504 ms
Writing library : LAME3.97
Encoding settings : -m s -V 4 -q 2 -lowpass 17 -b 128



Скачать Хостел.2.Hostel.Part.II.(Элай.Рот.Eli.Roth).[2007.ужасы.триллер.HDRip].[DUB].torrent без регистрации
Золото ЗОЛОТАЯ РАЗДАЧА! СКАЧАННОЕ НЕ ЗАСЧИТЫВАЕТСЯ! Золото
Дата: Зарегистрирован   [ Тип: внутренний ] Как тут cкачать?
MAGNET ссылка
MAGNET ссылка


Скачать .torrent

15 KB

Статус: проверено
Скачан: торрент - 142 раз, раздача полностью - 535 раз
Размер: 742 MB
Оценка:  - (Голосов: 0)
Поблагодарили: 1
Поделиться ссылкой на эту раздачу с друзьями:
В контактеFacebookОдноклассникиTwitterLivejournalМой МирLiveinternet
 

 
Показать сообщения:    


Вы не можете начинать темы
Вы не можете отвечать на сообщения
Вы не можете редактировать свои сообщения
Вы не можете удалять свои сообщения
Вы не можете голосовать в опросах
Вы не можете прикреплять файлы к сообщениям
Вы можете скачивать файлы