Loading...
Error

Скачать 007: Завтра не умрет никогда / 007: Tomorrow Never Dies (Роджер Споттисвуд) [1997, Боевик, триллер, приключения, HDTVRip] [AVC] [MVO] торрент без регистрации

 
Статистика раздачи
Размер:  4,38 GB   |    Скачан:  128 раз
Сидов:  1  [  0 KB/s  ]  
 
Автор Сообщение

Marsianka

[] 

Завтра не умрет никогда / Tomorrow Never Dies (1997) HDTVRip-AVC
от DHT-Movies
&laquoThе Man. The Number. The License...are all back.»


Название: Завтра не умрет никогда
Оригинальное название: Tomorrow Never Dies
Год выхода: 1997
Жанр: Боевик, триллер, приключения
Режиссер: Роджер Споттисвуд

В ролях:

Пирс Броснан, Джонатан Прайс, Мишель Йео, Тери Хэтчер, Рикки Джей, Готц Отто, Джо Дон Бейкер, Винсент Скьявелли, Джуди Денч, Дезмонд Льюэлин

Описание:

Медиамагнат Элиот Карвер, один из самых влиятельных и богатых людей планеты. Он хочет присоединить Китай к своей глобальной телекоммуникационной империи. Китай как всегда не спешит с решением, и это выводит Карвера из равновесия. Для достижения своих целей он не остановится ни перед чем.

А имея в распоряжении самый эффективный инструмент формирования общественного мнения, он готов даже спровоцировать третью мировую войну. Чтобы предотвратить катастрофу, Джеймсу Бонду необходимо использовать все свои необыкновенные способности, благо прогресс не стоит на месте, и Бонда вовремя снабжают новыми высокотехнологичными разработками из шпионских лабораторий.

Страна: США, Великобритания
Продолжительность: 01:59:06
Перевод: Многоголосый (Профессиональный"КиноМания") + Оригинал (Английский)
Субтитры: Русские UTF-8

Релиз группа: | by AVT83

Качество: HDTVRip -AVC (Исходник от DON)
Формат: MKV
Видео кодек: H.264
Видео: 1152x464 23.976 fps 4 434 Kbps 0.346 Bits/(Pixel*Frame)
Аудио (Русский): 48 kHz, AC3 Dolby Digital, 3/2 (L,C,R,l,r) + LFE ch, ~ 448 kbps avg | (Многоголосый)
Аудио (Английский): 48 kHz, AC3 Dolby Digital, 3/2 (L,C,R,l,r) + LFE ch, ~ 384 kbps avg | (Оригинал)





Format : Matroska
File size : 4.38 GiB
Duration : 1h 59mn
Overall bit rate : 5 262 Kbps
Encoded date : UTC 2012-01-07 11:24:39
Writing application : mkvmerge v4.6.0 ('Still Crazy After All These Years') built on Apr 1 2011 21:01:49
Writing library : libebml v1.2.0 + libmatroska v1.1.0

Video
ID : 1
Format : AVC
Format/Info : Advanced Video Codec
Format profile : High@L4.1
Format settings, CABAC : Yes
Format settings, ReFrames : 6 frames
Muxing mode : Header stripping
Codec ID : V_MPEG4/ISO/AVC
Duration : 1h 59mn
Bit rate : 4 434 Kbps
Width : 1 152 pixels
Height : 464 pixels
Display aspect ratio : 2.483
Frame rate : 23.976 fps
Color space : YUV
Chroma subsampling : 4:2:0
Bit depth : 8 bits
Scan type : Progressive
Bits/(Pixel*Frame) : 0.346
Stream size : 3.60 GiB (82%)
Writing library : x264 core 115 r1937 aa21558
Encoding settings : cabac=1 / ref=6 / deblock=1:-2:-2 / analyse=0x3:0x133 / me=umh / subme=9 / psy=1 / psy_rd=1.00:0.80 / mixed_ref=1 / me_range=32 / chroma_me=1 / trellis=2 / 8x8dct=1 / cqm=0 / deadzone=21,11 / fast_pskip=0 / chroma_qp_offset=-4 / threads=6 / sliced_threads=0 / nr=0 / decimate=1 / interlaced=0 / bluray_compat=0 / constrained_intra=0 / bframes=4 / b_pyramid=2 / b_adapt=2 / b_bias=0 / direct=3 / weightb=1 / open_gop=0 / weightp=2 / keyint=240 / keyint_min=20 / scenecut=40 / intra_refresh=0 / rc_lookahead=60 / rc=2pass / mbtree=1 / bitrate=4434 / ratetol=1.0 / qcomp=0.60 / qpmin=10 / qpmax=51 / qpstep=4 / cplxblur=20.0 / qblur=0.5 / ip_ratio=1.40 / aq=1:1.00
Language : English

Audio #1
ID : 2
Format : AC-3
Format/Info : Audio Coding 3
Mode extension : CM (complete main)
Muxing mode : Header stripping
Codec ID : A_AC3
Duration : 1h 59mn
Bit rate mode : Constant
Bit rate : 448 Kbps
Channel(s) : 6 channels
Channel positions : Front: L C R, Side: L R, LFE
Sampling rate : 48.0 KHz
Bit depth : 16 bits
Compression mode : Lossy
Stream size : 382 MiB (9%)
Title : Многоголосый "Киномания"
Language : Russian

Audio #2
ID : 3
Format : AC-3
Format/Info : Audio Coding 3
Mode extension : CM (complete main)
Muxing mode : Header stripping
Codec ID : A_AC3
Duration : 1h 59mn
Bit rate mode : Constant
Bit rate : 384 Kbps
Channel(s) : 6 channels
Channel positions : Front: L C R, Side: L R, LFE
Sampling rate : 48.0 KHz
Bit depth : 16 bits
Compression mode : Lossy
Stream size : 327 MiB (7%)
Title : Оригинал
Language : English

Text
ID : 4
Format : UTF-8
Codec ID : S_TEXT/UTF8
Codec ID/Info : UTF-8 Plain Text



Скачать 007.Завтра.не.умрет.никогда.007.Tomorrow.Never.Dies.(Роджер.Споттисвуд).[1997.Боевик.триллер.приключения.HDTVRip].[AVC].[MVO].torrent без регистрации
Золото ЗОЛОТАЯ РАЗДАЧА! СКАЧАННОЕ НЕ ЗАСЧИТЫВАЕТСЯ! Золото
Дата: Зарегистрирован   [ Тип: внутренний ] Как тут cкачать?
MAGNET ссылка
MAGNET ссылка


Скачать .torrent

22 KB

Статус: проверено DHT
Скачан: торрент - 128 раз, раздача полностью - 3 раз
Размер: 4,38 GB
Оценка:  - (Голосов: 0)
Поблагодарили: 2
Поделиться ссылкой на эту раздачу с друзьями:
В контактеFacebookОдноклассникиTwitterLivejournalМой МирLiveinternet
 

 
Показать сообщения:    


Вы не можете начинать темы
Вы не можете отвечать на сообщения
Вы не можете редактировать свои сообщения
Вы не можете удалять свои сообщения
Вы не можете голосовать в опросах
Вы не можете прикреплять файлы к сообщениям
Вы можете скачивать файлы