Loading...
Error

Скачать Измена / Betrayal (сезон 01) (Стивен Крегг, Майкл Моррис, Эндрю Бернштейн) [2013, драма, детектив, триллер, WEB-DL] [720p] [MVO (Fox Life)] торрент без регистрации

 
Статистика раздачи
Размер:  17,99 GB   |    Скачан:  172 раза
Сидов:  5  [  0 KB/s  ]   Личеров:  2  [  0 KB/s  ]  
 
Автор Сообщение

МихаНЕзатор

[] 

Информация о фильме
Название: Измена
Оригинальное название: Betrayal
Год выхода: 2013
Жанр: драма, детектив, триллер
Режиссер: Стивен Крегг, Майкл Моррис, Эндрю Бернштейн


В ролях: Ханна Уэр, Генри Томас, Венди Мониз, Браден Лемастерс, Элизабет МакЛафлин, Стюарт Таунсенд



О фильме: В центре сюжета находится молодая и замужняя женщина-фотограф, которая крутит роман с женатым адвокатом из властной и богатой семьи Маккутхенов. История начинается с того, что он защищает подозреваемого в убийстве в деле, над которым работает её муж, и эти события оборачиваются серией предательств и обмана для обеих сторон.




Официальный сайт



Страна: США
Студия: ABC Studios
Продолжительность: ~00:43:00 серия
Перевод: Профессиональный (многоголосый закадровый) Fox Life



Файл
Кодек: x264 / AC3
Качество: WEB-DL 720p
Видео: AVC, 1280x720 (16:9), 23.976 fps, 3 795 Kbps (0.172 bit/pixel)
Звук:
Аудио #1: AC-3, 48.0 KHz, 2 ch, 192 Kbps, CBR (Russian)
Аудио #2: AC-3, 48.0 KHz, 6 ch, 384 Kbps, CBR (English)


АНОНСЫ ПОПУЛЯРНЫХ РАЗДАЧ


19.06.2014 г. торент обновлён, добавлена 13-я серия!
General
Unique ID : 235939036659921540166401966179579077565 (0xB18034A0959526FE9783DDFCE6E023BD)
Complete name : /Betrayal.s01.WEBDL.720p.NewStudio/Betrayal.s01e01.WEBDL.720p.NewStudio.TV.mkv
Format : Matroska
Format version : Version 2
File size : 1.34 GiB
Duration : 43mn 5s
Overall bit rate : 4 460 Kbps
Encoded date : UTC 2014-03-24 19:12:53
Writing application : mkvmerge v2.9.9 ('Tutu') built on Nov 25 2009 21:13:32
Writing library : libebml v0.7.9 + libmatroska v0.8.1

Video
ID : 1
Format : AVC
Format/Info : Advanced Video Codec
Format profile : High@L3.1
Format settings, CABAC : No
Format settings, ReFrames : 2 frames
Codec ID : V_MPEG4/ISO/AVC
Duration : 43mn 5s
Bit rate : 3 795 Kbps
Width : 1 280 pixels
Height : 720 pixels
Display aspect ratio : 16:9
Frame rate : 23.976 fps
Color space : YUV
Chroma subsampling : 4:2:0
Bit depth : 8 bits
Scan type : Progressive
Bits/(Pixel*Frame) : 0.172
Stream size : 1.14 GiB (85%)
Language : English
Default : No
Forced : No
Color primaries : BT.709-5, BT.1361, IEC 61966-2-4, SMPTE RP177
Transfer characteristics : BT.709-5, BT.1361
Matrix coefficients : BT.709-5, BT.1361, IEC 61966-2-4 709, SMPTE RP177

Audio #1
ID : 2
Format : AC-3
Format/Info : Audio Coding 3
Mode extension : CM (complete main)
Format settings, Endianness : Big
Codec ID : A_AC3
Duration : 43mn 5s
Bit rate mode : Constant
Bit rate : 192 Kbps
Channel(s) : 2 channels
Channel positions : Front: L R
Sampling rate : 48.0 KHz
Bit depth : 16 bits
Compression mode : Lossy
Stream size : 59.2 MiB (4%)
Language : Russian
Default : Yes
Forced : Yes

Audio #2
ID : 3
Format : AC-3
Format/Info : Audio Coding 3
Mode extension : CM (complete main)
Format settings, Endianness : Big
Codec ID : A_AC3
Duration : 43mn 5s
Bit rate mode : Constant
Bit rate : 384 Kbps
Channel(s) : 6 channels
Channel positions : Front: L C R, Side: L R, LFE
Sampling rate : 48.0 KHz
Bit depth : 16 bits
Compression mode : Lossy
Stream size : 118 MiB (9%)
Language : English
Default : No
Forced : No



Скачать Измена.Betrayal.(сезон.01).(Стивен.Крегг.Майкл.Моррис.Эндрю.Бернштейн).[2013.драма.детектив.триллер.WEB-DL].[720p].[MVO.(Fox.Life)].torrent без регистрации
Золото ЗОЛОТАЯ РАЗДАЧА! СКАЧАННОЕ НЕ ЗАСЧИТЫВАЕТСЯ! Золото
Дата: Зарегистрирован   [ Тип: внешний ] Как тут cкачать?
MAGNET ссылка
MAGNET ссылка


Скачать .torrent

48 KB

Статус: проверено DHT
Скачан: торрент - 172 раз, раздача полностью - 23 раз
Размер: 17,99 GB
Оценка:  - (Голосов: 0)
Поблагодарили: 0
Поделиться ссылкой на эту раздачу с друзьями:
В контактеFacebookОдноклассникиTwitterLivejournalМой МирLiveinternet
 

 

МихаНЕзатор

[] 

Раздача обновлена
 
Показать сообщения:    


Вы не можете начинать темы
Вы не можете отвечать на сообщения
Вы не можете редактировать свои сообщения
Вы не можете удалять свои сообщения
Вы не можете голосовать в опросах
Вы не можете прикреплять файлы к сообщениям
Вы можете скачивать файлы