Loading...
Error

Скачать Карточный домик / House of Cards (сезон 01) (Джеймс Фоули, Дэвид Финчер, Карл Франклин) [2013, драма, HDTV] [1080i] [MVO (Первый канал)] торрент без регистрации

 
Статистика раздачи
Размер:  41,11 GB   |    Скачан:  413 раз

Полного источника не было: 26 минут

 
Автор Сообщение

МихаНЕзатор

[] 

Название: Карточный домик
Оригинальное название: House of Cards
Год выпуска: 2013
Жанр: драма
Режиссер: Джеймс Фоули, Дэвид Финчер, Карл Франклин
В ролях: Кевин Спейси, Робин Райт, Кейт Мара, Кори Столл, Майкл Келли, Сакина Джэффри, Жаклин Джонс, Рюэл Пендлтон, Гилберт Сото, Сандрин Холт

Описание: Безжалостный конгрессмен, Фрэнсис Андервуд, и его амбициозная жена Клэр, не остановятся ни перед чем, чтобы завоевать все. Эта жестокая политическая драма пропитанная жадностью, сексом, любовью и коррупцией.

Релиз от:

Выпущено: США / Media Rights Capital, Panic Pictures (II), Trigger Street Productions
Продолжительность: 04 x ~ 00:55:00
Перевод: Профессиональный (многоголосый, закадровый) - Первый канал
Субтитры: Нет

Качество: HDTV 1080i
Формат: TS
Видео: AVC, ~8500 Кбит/с, 1920x1080
Аудио: AC3, 2 ch, 384 Кбит/с

01.03.2013 г. торент обновлён, добавлена 10-13 серия!
General
ID : 1 (0x1)
Complete name : E:torrentКарточный домик 1080i HDTV (season 1)House.of.Cards.S01E02.1080i.HDTV.ts
Format : MPEG-TS
File size : 3.08 GiB
Duration : 46mn 46s
Overall bit rate mode : Variable
Overall bit rate : 9 432 Kbps

Video
ID : 101 (0x65)
Menu ID : 1 (0x1)
Format : AVC
Format/Info : Advanced Video Codec
Format profile : High@L4.0
Format settings, CABAC : Yes
Format settings, ReFrames : 3 frames
Codec ID : 27
Duration : 46mn 47s
Bit rate : 8 578 Kbps
Width : 1 920 pixels
Height : 1 080 pixels
Display aspect ratio : 16:9
Frame rate : 25.000 fps
Standard : Component
Color space : YUV
Chroma subsampling : 4:2:0
Bit depth : 8 bits
Scan type : Interlaced
Scan order : Top Field First
Bits/(Pixel*Frame) : 0.165
Stream size : 2.80 GiB (91%)
Color primaries : BT.709
Transfer characteristics : BT.709
Matrix coefficients : BT.709

Audio
ID : 111 (0x6F)
Menu ID : 1 (0x1)
Format : AC-3
Format/Info : Audio Coding 3
Mode extension : CM (complete main)
Format settings, Endianness : Big
Codec ID : 6
Duration : 46mn 46s
Bit rate mode : Constant
Bit rate : 384 Kbps
Channel(s) : 2 channels
Channel positions : Front: L R
Sampling rate : 48.0 KHz
Bit depth : 16 bits
Compression mode : Lossy
Stream size : 128 MiB (4%)
Language : Russian



Скачать Карточный.домик.House.of.Cards.(сезон.01).(Джеймс.Фоули.Дэвид.Финчер.Карл.Франклин).[2013.драма.HDTV].[1080i].[MVO.(Первый.канал)].torrent без регистрации
Золото ЗОЛОТАЯ РАЗДАЧА! СКАЧАННОЕ НЕ ЗАСЧИТЫВАЕТСЯ! Золото
Дата: Зарегистрирован   [ Тип: внутренний ] Как тут cкачать?
MAGNET ссылка
MAGNET ссылка


Скачать .torrent

207 KB

Статус: проверено DHT
Скачан: торрент - 413 раз, раздача полностью - 327 раз
Размер: 41,11 GB
Оценка:  5 (Голосов: 1)
Поблагодарили: 5
Поделиться ссылкой на эту раздачу с друзьями:
В контактеFacebookОдноклассникиTwitterLivejournalМой МирLiveinternet
 

 

kulas66

[] 

Когда же 10-я?
 
Показать сообщения:    


Вы не можете начинать темы
Вы не можете отвечать на сообщения
Вы не можете редактировать свои сообщения
Вы не можете удалять свои сообщения
Вы не можете голосовать в опросах
Вы не можете прикреплять файлы к сообщениям
Вы можете скачивать файлы