Loading...
Error

Скачать Бесстыдники / Shameless (сезон 03) (Марк Майлод и др.) [2013, комедия, драма, HDTVRip] [720p] [MVO (AlexFilm)] торрент без регистрации

 
Статистика раздачи
Размер:  21,14 GB   |    Скачан:  215 раз
Сидов:  1  [  0 KB/s  ]  
 
Автор Сообщение

МихаНЕзатор

[] 

Название: Бесстыжие
Оригинальное название: Shameless
Год выпуска: 2013
Жанр: комедия, драма
Режиссер: Марк Майлод, Джон Уэллс, Стивен Хопкинс, Тодд Холлэнд, Мими Ледер, Джон Дал

В ролях: Уильям Х. Мэйси, Эмми Россам, Итэн Каткоски, Джастин Чэтвин, Блейк Александр Джонсон, Бреннан Кэйн Джонсон, Кельвин Гилмор, Камерон Монахэн, Лаура Уиггинс, Джоэль Мюррэй, Пей Вахдат, Джоан Кьюсак

Описание: Shameless, основанный на одноименном британском сериале, расскажет о семействе Галлагеров из Чикаго. Мать уже давно бросила семью, а отец-алкоголик обычно лежит в отключке, поэтому 18-летней дочери приходится взять на себя обязанности родителя и воспитывать пятерых братьев и сестер.





Страна: США
Продолжительность: 03 x ~ 01:00:00
Перевод: Профессиональный (многоголосый, закадровый) - AlexFilm
Субтитры: Нет

Озвучка: Евгения Тихонова, Анастасия Флигина, Константин Погодаев, Александр Дасевич, Михаил Суслов
Перевод: Олег Папулов (Jeketeur)

Качество: HDTVRip 720p
Формат: МКV
Видео: MPEG-4 AVC, ~ 4150 Кбит/с, 1280x714
Аудио rus: АС3, 2 ch, 192 Кбит/с
Аудио eng: АС3, 6 ch, 384 Кбит/с

Релиз от:

26.04.2013 г. торент обновлёг, добавлена 12 серия, сезон полностью

01 Большой Каньон (El Gran Canon)
02 (The American Dream)
03 (May I Trim Your Hedges?)
04 (The Helpful Gallaghers)
05 (The Sins of My Caretaker)
06 (Cascading Failures)
07 (A Long Way From Home)
08 (Where There's a Will)
09 (Frank the Plumber)
10 (Civil Wrongs)
11 (Order Room Service)
12 (Survival of the Fittest)
Формат : Matroska
Размер файла : 1,84 Гбайт
Продолжительность : 53 м.
Общий поток : 4902 Кбит/сек
Дата кодирования : UTC 2010-02-22 21:41:31
Программа кодирования : mkvmerge v5.9.0 ('On The Loose') built on Dec 9 2012 15:37:01
Библиотека кодирования : libebml v1.3.0 + libmatroska v1.4.0

Видео
Идентификатор : 1
Формат : AVC
Формат/Информация : Advanced Video Codec
Профиль формата : High@L4.1
Параметр CABAC формата : Да
Параметр ReFrames формата : 5 кадров
Идентификатор кодека : V_MPEG4/ISO/AVC
Продолжительность : 53 м.
Битрейт : 4228 Кбит/сек
Ширина : 1280 пикс.
Высота : 714 пикс.
Соотношение сторон : 16:9
Частота кадров : 23,976 кадр/сек
Цветовое пространство : YUV
Подвыборка цветности : 4:2:0
Битовая глубина : 8 бит
Тип развёртки : Прогрессивная
Бит/(Пиксели*Кадры) : 0.193
Размер потока : 1,59 Гбайт (86%)
Библиотека кодирования : x264 core 129 r2245 bc13772
Настройки программы : cabac=1 / ref=5 / deblock=1:-2:-2 / analyse=0x3:0x113 / me=umh / subme=8 / psy=1 / psy_rd=1.05:0.00 / mixed_ref=1 / me_range=16 / chroma_me=1 / trellis=1 / 8x8dct=1 / cqm=0 / deadzone=21,11 / fast_pskip=1 / chroma_qp_offset=-2 / threads=18 / lookahead_threads=3 / sliced_threads=0 / nr=0 / decimate=1 / interlaced=0 / bluray_compat=0 / constrained_intra=0 / bframes=3 / b_pyramid=2 / b_adapt=2 / b_bias=0 / direct=3 / weightb=1 / open_gop=0 / weightp=2 / keyint=250 / keyint_min=23 / scenecut=40 / intra_refresh=0 / rc_lookahead=50 / rc=crf / mbtree=1 / crf=18.0 / qcomp=0.60 / qpmin=0 / qpmax=69 / qpstep=4 / ip_ratio=1.40 / aq=1:1.10
Язык : English

Аудио #1
Идентификатор : 2
Формат : AC-3
Формат/Информация : Audio Coding 3
Расширение режима : CM (complete main)
Идентификатор кодека : A_AC3
Продолжительность : 53 м.
Вид битрейта : Постоянный
Битрейт : 384 Кбит/сек
Каналы : 6 каналов
Расположение каналов : Front: L C R, Side: L R, LFE
Частота : 48,0 КГц
Битовая глубина : 16 бит
Метод сжатия : С потерями
Размер потока : 148 Мбайт (8%)
Язык : English

Аудио #2
Идентификатор : 3
Формат : AC-3
Формат/Информация : Audio Coding 3
Расширение режима : CM (complete main)
Идентификатор кодека : A_AC3
Продолжительность : 53 м.
Вид битрейта : Постоянный
Битрейт : 192 Кбит/сек
Каналы : 2 канала
Расположение каналов : Front: L R
Частота : 48,0 КГц
Битовая глубина : 16 бит
Метод сжатия : С потерями
Размер потока : 73,9 Мбайт (4%)
Язык : Russian



Скачать Бесстыдники.Shameless.(сезон.03).(Марк.Майлод.и.др.).[2013.комедия.драма.HDTVRip].[720p].[MVO.(AlexFilm)].torrent без регистрации
Золото ЗОЛОТАЯ РАЗДАЧА! СКАЧАННОЕ НЕ ЗАСЧИТЫВАЕТСЯ! Золото
Дата: Зарегистрирован   [ Тип: внутренний ] Как тут cкачать?
MAGNET ссылка
MAGNET ссылка


Скачать .torrent

54 KB

Статус: проверено DHT
Скачан: торрент - 215 раз, раздача полностью - 76 раз
Размер: 21,14 GB
Оценка:  5 (Голосов: 3)
Поблагодарили: 5
Поделиться ссылкой на эту раздачу с друзьями:
В контактеFacebookОдноклассникиTwitterLivejournalМой МирLiveinternet
 

 

МихаНЕзатор

[] 

Раздача обновлена
 
Показать сообщения:    


Вы не можете начинать темы
Вы не можете отвечать на сообщения
Вы не можете редактировать свои сообщения
Вы не можете удалять свои сообщения
Вы не можете голосовать в опросах
Вы не можете прикреплять файлы к сообщениям
Вы можете скачивать файлы