Loading...
Error

Скачать Детройт - Город Рока / Detroit Rock City (Адам Рифкин) [1999, Комедия, Музыка, DVDRip] [Лицензия R5]+[AVO] торрент без регистрации

 
Статистика раздачи
Размер:  1,45 GB   |    Скачан:  130 раз

Полного источника не было: 21 минута

 
Автор Сообщение

Marsianka

[] 

Детройт - Город Рока / Detroit Rock City (1999) DVDRip от cairow

Информация о фильме
Название: Детройт - Город Рока
Оригинальное название: Detroit Rock City
Год выхода: 1999
Жанр: Комедия, Музыка
Режиссер: Адам Рифкин / Adam Rifkin
Сценарист: Карл В. ДюПре / Carl V. Dupr™
Продюсер: Кэтлин Хаазе / Kathleen Haase, Бэрри Ливайн / Barry Levine, Джин Симмонс / Gene Simmons

В ролях: Джузеппе Эндрюс / Giuseppe Andrews, Джеймс ДеБелло / James DeBello, Эдвард Ферлонг / Edward Furlong, Сэм Хантингтон / Sam Huntington, Лин Шэй / Lin Shaye, Мелани Лински / Melanie Lynskey, Наташа Лионни / Natasha Lyonne, Майлз Дагал / Miles Dougal, Ник Скотти / Nick Scotti, Эммануэль Шрики / Emmanuelle Chriqui, Джин Симмонс / Gene Simmons, Пол Стэнли / Paul Stanley, Ace Frehley / Эйс Фрили, Peter Criss / Питер Крисс, ...

О фильме: Для Хоука, Лекса, Трипа и Джема только одна вещь была круче травки это группа "KISS"! Предстоящий концерт музыкантов в Детройте был их ближайшей и единственной целью. Билеты в кармане, Детройт не за горами. Но не тут то было! С самого начала покатила непруха. Все было против них, однако парням все же удалось двинуться в путь! И они уже предвкушали будущий кайф. Но оказалось, что главные приключения еще ждут их впереди!



Автор рипа: cairow

Выпущено: New Line Cinema, США
Продолжительность: 01:34:49
Перевод: Профессиональный (многоголосый закадровый) |R5| + Оригинальная звуковая дорожка отдельно на iFolder.ru + Авторский (одноголосый закадровый) |П. Санаев| отдельно на iFolder.ru
Субтитры: Английские (внешние *.srt)

Файл
Формат: AVI
Качество: DVDRip (источник: / DVD-9 / 480p) спасибо mikemelo1369
Видео: 704x304 (2.32:1), 23.976 fps, XviD build 64 ~1733 kbps avg, 0.34 bit/pixel
Аудио #1: 48 kHz, AC3 Dolby Digital, 3/2 (L,C,R,l,r) + LFE ch, 448 kbps (RUS) |R5| спасибо Vitala19
Аудио #2: 48 kHz, AC3 Dolby Digital, 3/2 (L,C,R,l,r) + LFE ch, 448 kbps (ENG) отдельно на iFolder.ru
Аудио #3: 48 kHz, AC3 Dolby Digital, 2 (L,R) ch, 192 kbps (RUS) |П. Санаев| спасибо Vitala19 отдельно на iFolder.ru
Размер: 1485.19 Mb (1/3 DVD-R)

General
Complete name : X:Detroit Rock City (DVDRip, XviD, AC3, Rus).avi
Format : AVI
Format/Info : Audio Video Interleave
File size : 1.45 GiB
Duration : 1h 34mn
Overall bit rate : 2 190 Kbps
Movie name : Detroit Rock City
Director : Adam Rifkin
Genre : Comedy | Music
Recorded date : 1999
Writing application : VirtualDubMod 1.5.10.2 (build 2542/release)
Writing library : VirtualDubMod build 2542/release
Comment : DVDRip by cairow

Video
ID : 0
Format : MPEG-4 Visual
Format profile : Advanced Simple@L5
Format settings, BVOP : 1
Format settings, QPel : No
Format settings, GMC : No warppoints
Format settings, Matrix : Custom
Codec ID : XVID
Codec ID/Hint : XviD
Duration : 1h 34mn
Bit rate : 1 733 Kbps
Width : 704 pixels
Height : 304 pixels
Display aspect ratio : 2.35:1
Frame rate : 23.976 fps
Color space : YUV
Chroma subsampling : 4:2:0
Bit depth : 8 bits
Scan type : Progressive
Compression mode : Lossy
Bits/(Pixel*Frame) : 0.338
Stream size : 1.15 GiB (79%)
Writing library : XviD 64

Audio
ID : 1
Format : AC-3
Format/Info : Audio Coding 3
Mode extension : CM (complete main)
Codec ID : 2000
Duration : 1h 34mn
Bit rate mode : Constant
Bit rate : 448 Kbps
Channel(s) : 6 channels
Channel positions : Front: L C R, Side: L R, LFE
Sampling rate : 48.0 KHz
Bit depth : 16 bits
Compression mode : Lossy
Stream size : 304 MiB (20%)
Alignment : Split accross interleaves
Interleave, duration : 42 ms (1.00 video frame)
Interleave, preload duration : 500 ms
Title : Russian



Скачать Детройт.-.Город.Рока.Detroit.Rock.City.(Адам.Рифкин).[1999.Комедия.Музыка.DVDRip].[Лицензия.R5]+[AVO].torrent без регистрации
Золото ЗОЛОТАЯ РАЗДАЧА! СКАЧАННОЕ НЕ ЗАСЧИТЫВАЕТСЯ! Золото
Дата: Зарегистрирован   [ Тип: внутренний ] Как тут cкачать?
MAGNET ссылка
MAGNET ссылка


Скачать .torrent

15 KB

Статус: проверено DHT
Скачан: торрент - 130 раз, раздача полностью - 89 раз
Размер: 1,45 GB
Оценка:  5 (Голосов: 1)
Поблагодарили: 2
Поделиться ссылкой на эту раздачу с друзьями:
В контактеFacebookОдноклассникиTwitterLivejournalМой МирLiveinternet
 

 
Показать сообщения:    


Вы не можете начинать темы
Вы не можете отвечать на сообщения
Вы не можете редактировать свои сообщения
Вы не можете удалять свои сообщения
Вы не можете голосовать в опросах
Вы не можете прикреплять файлы к сообщениям
Вы можете скачивать файлы