Loading...
Error

Скачать Подпольная Империя / Boardwalk Empire (Сезон 04, серия 04 из 12) (Тимоти Ван Паттен, Аллен Култер) [2013 г., драма, криминальный, HDTVRip] [AVO] (Ю. Сербин) + Original Eng торрент без регистрации

 
Статистика раздачи
Размер:  767 MB   |    Скачан:  236 раз

Полного источника не было: 29 минут

 
Автор Сообщение

leon030982

[] 


Подпольная Империя | Boardwalk Empire

Год выпуска: 2013
Страна: США | HBO
Жанр: драма, криминальный
Продолжительность: ~ 00:56:30
Перевод: Авторский (одноголосый, закадровый) |Ю. Сербин|
Субтитры: Отсутствуют

Режиссер: Тимоти Ван Паттен, Аллен Култер
В ролях: Стив Бушеми, Майкл Питт, Келли Макдоналд, Майкл Шеннон, Ши Уигхэм, Алекса Палладино, Майкл Стулбарг, Стивен Грэм, Винсент Пьяцца, Джек Хьюстон и др.
Описание: 1920 год. Через несколько часов Атлантик-Сити — столица развлечений и порока, как и вся Америка, вступит в эпоху «Сухого закона». Енох «Наки» Томпсон, днем — городской казначей, а ночью — хитроумный гангстер со связями на самом «верху», решает воспользоваться ситуацией и получить баснословные прибыли на подпольной торговле алкоголем. Однако не он один жаждет обогатиться на новом промысле…

IMDb | КиноПоиск
Качество: HDTVRip
Формат: AVI
Видео кодек: XvID
Аудио кодек: MP3
Видео: 720x400 (1.80:1), 23.976 fps, XviD build 50 ~1626 kbps avg, 0.24 bit/pixel
Аудио #1: MP3, 48.0 KHz, 2 ch, 128 Kbps |Ю. Сербин|
Аудио #2: MP3, 48.0 KHz, 2 ch, 128 Kbps |оригинал|
General
Complete name : E:\INTERNET\Podpolnaja.imperija.(4.sezon).2013.XviD.HDTVRip.\Podpolnaja.imperija.(4.sezon.04.serija.iz.12).2013.XviD.HDTVRip.(Serbin)+Eng.avi
Format : AVI
Format/Info : Audio Video Interleave
File size : 767 MiB
Duration : 56mn 30s
Overall bit rate : 1 897 Kbps
Writing application : VirtualDubMod 1.5.10.3 (build 2550/release)
Writing library : VirtualDubMod build 2550/release

Video
ID : 0
Format : MPEG-4 Visual
Format profile : Advanced Simple@L5
Format settings, BVOP : Yes
Format settings, QPel : No
Format settings, GMC : No warppoints
Format settings, Matrix : Default (MPEG)
Codec ID : XVID
Codec ID/Hint : XviD
Duration : 56mn 30s
Bit rate : 1 628 Kbps
Width : 720 pixels
Height : 400 pixels
Display aspect ratio : 16:9
Frame rate : 23.976 fps
Color space : YUV
Chroma subsampling : 4:2:0
Bit depth : 8 bits
Scan type : Progressive
Bits/(Pixel*Frame) : 0.236
Stream size : 658 MiB (86%)
Writing library : XviD 1.2.1 (UTC 2008-12-04)

Audio #1
ID : 1
Format : MPEG Audio
Format version : Version 1
Format profile : Layer 3
Codec ID : 55
Codec ID/Hint : MP3
Duration : 56mn 30s
Bit rate mode : Constant
Bit rate : 128 Kbps
Channel(s) : 2 channels
Sampling rate : 48.0 KHz
Stream size : 51.7 MiB (7%)
Alignment : Aligned on interleaves
Interleave, duration : 42 ms (1.00 video frame)
Interleave, preload duration : 504 ms
Writing library : LAME3.99r
Encoding settings : -m s -V 4 -q 2 -lowpass 17 -b 128

Audio #2
ID : 2
Format : MPEG Audio
Format version : Version 1
Format profile : Layer 3
Mode : Joint stereo
Codec ID : 55
Codec ID/Hint : MP3
Duration : 56mn 29s
Bit rate mode : Constant
Bit rate : 128 Kbps
Channel(s) : 2 channels
Sampling rate : 48.0 KHz
Stream size : 51.7 MiB (7%)
Alignment : Aligned on interleaves
Interleave, duration : 42 ms (1.00 video frame)
Interleave, preload duration : 504 ms
Перевод Ю.Сербина осуществлен в рамках сервиса "Озвучивание" (HDClub)
Спонсоры: rubak, denismgn1987, ochkarik1, Loki1982, Max_U, ray_hollis, SckraT, FM1981, RAUL, oak, Confidence, deadbeef
Работа со звуком: Nez



Скачать Подпольная.Империя.Boardwalk.Empire.(Сезон.04.серия.04.из.12).(Тимоти.Ван.Паттен.Аллен.Култер).[2013.г.драма.криминальный.HDTVRip].[AVO].(Ю.Сербин).+.Original.Eng.torrent без регистрации
Золото ЗОЛОТАЯ РАЗДАЧА! СКАЧАННОЕ НЕ ЗАСЧИТЫВАЕТСЯ! Золото
Дата: Зарегистрирован   [ Тип: внутренний ] Как тут cкачать?
MAGNET ссылка
MAGNET ссылка


Скачать .torrent

16 KB

Статус: проверено DHT
Скачан: торрент - 236 раз, раздача полностью - 4 раз
Размер: 767 MB
Оценка:  5 (Голосов: 1)
Поблагодарили: 2
Поделиться ссылкой на эту раздачу с друзьями:
В контактеFacebookОдноклассникиTwitterLivejournalМой МирLiveinternet
 

 

leon030982

[] 

заменено на лучшее качество az
 
Показать сообщения:    


Вы не можете начинать темы
Вы не можете отвечать на сообщения
Вы не можете редактировать свои сообщения
Вы не можете удалять свои сообщения
Вы не можете голосовать в опросах
Вы не можете прикреплять файлы к сообщениям
Вы можете скачивать файлы