Loading...
Error

Скачать Река / The River (01x01-02) (Жауме Серра, Кеннет Финк, Дин Уайт) [2012, ужасы, драма, приключения,триллер, WEB-DL] [400p] [MVO] торрент без регистрации

 
Статистика раздачи
Размер:  1,45 GB   |    Скачан:  165 раз
Сидов:  1  [  0 KB/s  ]  
 
Автор Сообщение

Centner1

[] 

Река / The River


Год выпуска: 2012
Страна: США
Жанр: ужасы, драма, приключения, триллер
Продолжительность: 45 мин
Перевод: Профессиональный многоголосый закадровый
Субтитры: нет
Режиссёр: Chris Murphey В ролях:
Брюс Гринвуд, Джо Андерсон, Лесли Хоуп, Элуиз Мамфорд, Пол Блекторн, Томас Кречманн, Дэниэл Зацапа, Шон Паркес, Паулина Гайтан, Джеф Галфер

Описание:
В джунглях Южной Америки пропала небольшая экспедиция, отправившаяся разыскивать затерянное племя в верховьях Амазонки. Они не отвечали на вызовы и не прибыли в контрольную точку. Через некоторое время вторая группа исследователей решила отправиться на поиски пропавшей экспедиции. Им предстоит пройти через неимоверные испытания, чтобы понять, что же произошло на самом деле… Качество: WEB-DLRip
Формат: AVI
Видео кодек: XviD
Аудио кодек: AC3
Видео: 720x400 (1.80:1), 23.976 fps, XviD MPEG-4 ~1998 kbps avg, 0.29 bit/pixel
Аудио Rus: 48 kHz, AC3 Dolby Digital, 2/0 (L,R) ch, ~192 kbps
Аудио Eng: 48 kHz, AC3 Dolby Digital, 2/0 (L,R) ch, ~192 kbps Рип: ЛП
General
Complete name : F:\ФТП 2\Work\Other\River Season 1\River.s01e01.rus.eng.avi
Format : AVI
Format/Info : Audio Video Interleave
File size : 750 MiB
Duration : 43mn 42s
Overall bit rate : 2 397 Kbps
Writing application : VirtualDubMod 1.5.10.2 (build 2540/release)
Writing library : VirtualDubMod build 2540/release

Video
ID : 0
Format : MPEG-4 Visual
Format profile : Advanced Simple@L5
Format settings, BVOP : 1
Format settings, QPel : No
Format settings, GMC : No warppoints
Format settings, Matrix : Default (MPEG)
Codec ID : XVID
Codec ID/Hint : XviD
Duration : 43mn 42s
Bit rate : 1 999 Kbps
Width : 720 pixels
Height : 400 pixels
Display aspect ratio : 16:9
Frame rate : 23.976 fps
Color space : YUV
Chroma subsampling : 4:2:0
Bit depth : 8 bits
Scan type : Progressive
Compression mode : Lossy
Bits/(Pixel*Frame) : 0.290
Stream size : 625 MiB (83%)
Writing library : XviD 64

Audio #1
ID : 1
Format : AC-3
Format/Info : Audio Coding 3
Mode extension : CM (complete main)
Codec ID : 2000
Duration : 43mn 42s
Bit rate mode : Constant
Bit rate : 192 Kbps
Channel(s) : 2 channels
Channel positions : Front: L R
Sampling rate : 48.0 KHz
Bit depth : 16 bits
Compression mode : Lossy
Stream size : 60.0 MiB (8%)
Alignment : Split accross interleaves
Interleave, duration : 42 ms (1.00 video frame)
Interleave, preload duration : 500 ms

Audio #2
ID : 2
Format : AC-3
Format/Info : Audio Coding 3
Mode extension : CM (complete main)
Codec ID : 2000
Duration : 43mn 42s
Bit rate mode : Constant
Bit rate : 192 Kbps
Channel(s) : 2 channels
Channel positions : Front: L R
Sampling rate : 48.0 KHz
Bit depth : 16 bits
Compression mode : Lossy
Stream size : 60.0 MiB (8%)
Alignment : Split accross interleaves
Interleave, duration : 42 ms (1.00 video frame)
Interleave, preload duration : 500 ms
Внимание! Раздача ведётся путём добавления новых серий; при каждом добавлении создётся новый торрент. Чтобы начать докачку новой серии, пользователям необходимо сделать следующее: (1) остановить скачивание, (2) удалить старый торрент у себя из клиента (старые серии удалять не надо), (3) скачать новый торрент и запустить его у себя в клиенте вместо старого, при этом указать клиенту путь в старую папку куда и должно происходить скачивание новых серий.

Ваш клиент при этом должен произвести хеширование (проверку) старой папки (если не производит сам - помогите ему сделать это), и будет докачивать только те серии которых у вас ещё нет. Старые серии при этом не удаляются, а продолжают раздаваться!

Eсли вы уже удалили старые серии, то предотвратить повторную закачку старых серий можно, отжав галочку в соответсвующих местах при запуске нового торрента.



Скачать Река.The.River.(01x01-02).(Жауме.Серра.Кеннет.Финк.Дин.Уайт).[2012.ужасы.драма.приключения.триллер.WEB-DL].[400p].[MVO].torrent без регистрации
Золото ЗОЛОТАЯ РАЗДАЧА! СКАЧАННОЕ НЕ ЗАСЧИТЫВАЕТСЯ! Золото
Дата: Зарегистрирован   [ Тип: внутренний ] Как тут cкачать?
MAGNET ссылка
MAGNET ссылка


Скачать .torrent

16 KB

Статус: проверено DHT
Скачан: торрент - 165 раз, раздача полностью - 16 раз
Размер: 1,45 GB
Оценка:  5 (Голосов: 2)
Поблагодарили: 4
Поделиться ссылкой на эту раздачу с друзьями:
В контактеFacebookОдноклассникиTwitterLivejournalМой МирLiveinternet
 

 
Показать сообщения:    


Вы не можете начинать темы
Вы не можете отвечать на сообщения
Вы не можете редактировать свои сообщения
Вы не можете удалять свои сообщения
Вы не можете голосовать в опросах
Вы не можете прикреплять файлы к сообщениям
Вы можете скачивать файлы