Loading...
Error

Скачать [Digital Tutors] Character Skeleton Building in Houdini [2009, ENG] торрент без регистрации

 
Статистика раздачи
Размер:  292 MB   |    Скачан:  107 раз
Сидов:  1  [  0 KB/s  ]  
 
Автор Сообщение

Moln!a

[] 

Character Skeleton Building in Houdini
Год выпуска: 2009
Производитель: Digital Tutors
Сайт производителя: http://www.digitaltutors.com/11/training.php?pid=150
Продолжительность: 00:53:31
Тип раздаваемого материала: Видеоурок
Язык: Английский
Описание: In this course we will learn how to build character skeletons for rigging purposes in Houdini.
In this training course we will focus on building a biped skeleton. We will start with the legs and work our way up the spine to the arms and conclude with the neck. Along the way we will learn different practices and methods for drawing the bones and by the end of the project we will have our hierarchy of bones ready for the next phase.
1. Introduction and project overview
2. Building the leg bones
3. Building the spine chain
4. Bone organizing and renaming
5. Building the arm bones
6. Building the finger bones
7. Building the thumb bones
8. Building the neck bone
9. Setting up the skeletal hierarchy
Файлы примеров: присутствуют
Формат видео: flv
Видео: Flash Video 4, 784x656, 1.211 ratio, 1000 Kbps, 15 fps
Аудио: MPEG Audio Layer 3, 44100Hz, mono, 96kbps
General
Format : Flash Video
Overall bit rate : 1 646 Kbps
Encoded date : Fri Oct 16 21:27:12 2009
Writing application : Digital-Tutors - All rights reserved / Sorenson Squeeze
Video
Format : VP6
Codec ID : 4
Bit rate : 1 000 Kbps
Width : 782 pixels
Height : 646 pixels
Display aspect ratio : 1.211
Frame rate mode : Constant
Frame rate : 15.000 fps
Bit depth : 8 bits
Bits/(Pixel*Frame) : 0.132
Stream size : 7.46 MiB (61%)
Audio
Format : MPEG Audio
Format version : Version 1
Format profile : Layer 3
Codec ID : 2
Codec ID/Hint : MP3
Bit rate mode : Constant
Bit rate : 96.0 Kbps
Channel(s) : 1 channel
Sampling rate : 44.1 KHz
Compression mode : Lossy
Stream size : 734 KiB (6%)



Скачать Character.Skeleton.Building.in.Houdini.[2009.ENG].torrent без регистрации
Золото ЗОЛОТАЯ РАЗДАЧА! СКАЧАННОЕ НЕ ЗАСЧИТЫВАЕТСЯ! Золото
Дата: Зарегистрирован   [ Тип: внутренний ] Как тут cкачать?
MAGNET ссылка
MAGNET ссылка


Скачать .torrent

14 KB

Статус: проверено DHT
Скачан: торрент - 107 раз, раздача полностью - 3 раз
Размер: 292 MB
Оценка:  - (Голосов: 0)
Поблагодарили: 0
Поделиться ссылкой на эту раздачу с друзьями:
В контактеFacebookОдноклассникиTwitterLivejournalМой МирLiveinternet
 

 
Показать сообщения:    


Вы не можете начинать темы
Вы не можете отвечать на сообщения
Вы не можете редактировать свои сообщения
Вы не можете удалять свои сообщения
Вы не можете голосовать в опросах
Вы не можете прикреплять файлы к сообщениям
Вы можете скачивать файлы