Loading...
Error

Скачать Вегас / Vegas (Полный 1-ый сезон) (Джеймс Мэнголд) [2012, драма, вестерн, WEB-DL] [1080p] [DVO] (NewStudio) торрент без регистрации

 
Статистика раздачи
Размер:  36,67 GB   |    Скачан:  133 раза
Сидов:  1  [  0 KB/s  ]  
 
Автор Сообщение

leon030982

[] 

Вегас / Vegas
Год выпуска: 2012
Страна: США
Жанр: драма, вестерн
Продолжительность: ~00:45:00
Перевод: Профессиональный (двухголосый, закадровый)
Русские субтитры: нет

Режиссёр: Мэтт Эрл Бисли

В ролях: Деннис Куэйд, Майкл Чиклис, Джеймс Руссо, Джейсон О’Мара, Кэрри-Энн Мосс, Айми Гарсиа

Описание: Vegas — драма по реальным событиям из жизни бывшего шерифа Лас Вегаса Ральфа Лэмба, которому в 60-е пришлось навести порядок в этой мекке развлечений и азартных игр, которая вдруг появилась в пустыне. Ральф Лэмб хочет спокойно заниматься своим ранчо, но коррупция в Лас Вегасе мешает его простой жизни. Вспомнив, что Лэмб состоял в военной полиции во времена второй мировой, мэр города аппелирует к чувству долга Ральфа, попросив его расследовать убийство работника казино. Так Лэмб сталкивается с Винсентом Савино, безжалостным чикагским гангстером, который намерен подмять под себя Лас Вегас. В поддержании правопорядка Ральфу помогают два заместителя: его дипломатичный брат Джек и его обаятельный но импульсивный сын Диксон. Амбициозная помощница прокурора Кэтрин О’Коннел, которая выросла по соседству с ранчо Лэмбов, тоже поддерживает борьбу за правосудие. Два могущественных мужчины — Лэмб и Савино — вступают в отчаянный бой за контроль над зарождающимся оазисом, и ни один из них не собирается отступать.

Сэмпл
Качество: WEB-DL 1080p
Формат: MKV
Видео кодек: H.264
Аудио кодек: AC3
Видео: AVC, 1920x1080, 23.976 fps, ~4 985 Kbps avg, 0.100 bit/pixel
Аудио Rus: AC3, 48.0 KHz, 6 ch, ~384 Kbps (New Studio)
Аудио Eng: AC3, 48.0 KHz, 6 ch, ~384 Kbps
General
Unique ID : 233627892961736175040691199170017626016 (0xAFC3187206DA1CBE8AA34367C4F207A0)
Complete name : E:\video\serials\Vegas.s01.1080p.WEB.DL.Rus.Eng.NewStudio\Vegas.s01e01.1080p.WEB.DL.Rus.Eng.NewStudio.mkv
Format : Matroska
Format version : Version 2
File size : 1.86 GiB
Duration : 45mn 25s
Overall bit rate : 5 870 Kbps
Movie name : Vegas.S01E01.1080p.WEB.DL.DD5.1.H.264.KiNGS.mkv 3319
Encoded date : UTC 2012-10-10 11:39:11
Writing application : mkvmerge v5.8.0 ('No Sleep / Pillow') built on Sep 2 2012 15:37:04
Writing library : libebml v1.2.3 + libmatroska v1.3.0
Video
ID : 1
Format : AVC
Format/Info : Advanced Video Codec
Format profile : High@L4.0
Format settings, CABAC : Yes
Format settings, ReFrames : 4 frames
Codec ID : V_MPEG4/ISO/AVC
Duration : 45mn 25s
Bit rate : 4 985 Kbps
Width : 1 920 pixels
Height : 1 080 pixels
Display aspect ratio : 16:9
Frame rate mode : Constant
Frame rate : 23.976 fps
Color space : YUV
Chroma subsampling : 4:2:0
Bit depth : 8 bits
Scan type : Progressive
Bits/(Pixel*Frame) : 0.100
Stream size : 1.58 GiB (85%)
Language : English
Default : Yes
Forced : No
Color primaries : BT.709
Transfer characteristics : BT.709
Matrix coefficients : BT.709
Audio #1
ID : 2
Format : AC-3
Format/Info : Audio Coding 3
Mode extension : CM (complete main)
Format settings, Endianness : Big
Codec ID : A_AC3
Duration : 45mn 25s
Bit rate mode : Constant
Bit rate : 384 Kbps
Channel(s) : 6 channels
Channel positions : Front: L C R, Side: L R, LFE
Sampling rate : 48.0 KHz
Bit depth : 16 bits
Compression mode : Lossy
Stream size : 125 MiB (7%)
Title : NewStudio
Language : Russian
Default : Yes
Forced : No
Audio #2
ID : 3
Format : AC-3
Format/Info : Audio Coding 3
Mode extension : CM (complete main)
Format settings, Endianness : Big
Codec ID : A_AC3
Duration : 45mn 25s
Bit rate mode : Constant
Bit rate : 384 Kbps
Channel(s) : 6 channels
Channel positions : Front: L C R, Side: L R, LFE
Sampling rate : 48.0 KHz
Bit depth : 16 bits
Compression mode : Lossy
Stream size : 125 MiB (7%)
Language : English
Default : No
Forced : No
S1, Ep1
Pilot
S1, Ep2
Money Plays
S1, Ep3
All That Glitters
S1, Ep4
(Il)Legitimate
S1, Ep5
Solid Citizens
S1, Ep6
The Real Thing
S1, Ep7
Bad Seeds
S1, Ep8
Exposure
Внимание! Раздача ведётся путём добавления новых серий; при каждом добавлении создётся новый торрент. Чтобы начать докачку новой серии, пользователям необходимо сделать следующее:
(1) остановить скачивание,
(2) удалить старый торрент у себя из клиента (старые серии удалять не надо),
(3) скачать новый торрент и запустить его у себя в клиенте вместо старого, при этом указать клиенту путь в старую папку куда и должно происходить скачивание новых серий.
Ваш клиент при этом должен произвести хеширование (проверку) старой папки (если не производит сам - помогите ему сделать это), и будет докачивать только те серии которых у вас ещё нет. Старые серии при этом не удаляются, а продолжают раздаваться!
Eсли вы уже удалили старые серии, то предотвратить повторную закачку старых серий можно, отжав галочку в соответсвующих местах при запуске нового торрента. По возможности, желательно не удалять старые серии как можно дольше чтобы релизёр не столько продолжал раздавать старые серии, а смог сконцентрироваться на новых.



Скачать Вегас.Vegas.(Полный.1-ый.сезон).(Джеймс.Мэнголд).[2012.драма.вестерн.WEB-DL].[1080p].[DVO].(NewStudio).torrent без регистрации
Золото ЗОЛОТАЯ РАЗДАЧА! СКАЧАННОЕ НЕ ЗАСЧИТЫВАЕТСЯ! Золото
Дата: Зарегистрирован   [ Тип: внутренний ] Как тут cкачать?
MAGNET ссылка
MAGNET ссылка


Скачать .torrent

185 KB

Статус: проверено DHT
Скачан: торрент - 133 раз, раздача полностью - 1 раз
Размер: 36,67 GB
Оценка:  5 (Голосов: 1)
Поблагодарили: 1
Поделиться ссылкой на эту раздачу с друзьями:
В контактеFacebookОдноклассникиTwitterLivejournalМой МирLiveinternet
 

 

leon030982

[] 

раздача обновлена az
 

leon030982

[] 

обновлено az
 
Показать сообщения:    


Вы не можете начинать темы
Вы не можете отвечать на сообщения
Вы не можете редактировать свои сообщения
Вы не можете удалять свои сообщения
Вы не можете голосовать в опросах
Вы не можете прикреплять файлы к сообщениям
Вы можете скачивать файлы