Loading...
Error

Скачать Любовь на острове / Love Wrecked (Рэндал Клайзер) [2005, мелодрама, комедия, приключения, BDRip-AVC] [Dub]+[Sub] торрент без регистрации

 
Статистика раздачи
Размер:  1,09 GB   |    Скачан:  131 раз
Сидов:  1  [  0 KB/s  ]  
 
Автор Сообщение

Marsianka

[] 

Любовь на острове / Love Wrecked (2005) BDRip-AVC

Информация о фильме
Название: Любовь на острове
Оригинальное название: Love Wrecked
Год выхода: 2005
Жанр: мелодрама, комедия, приключения
Режиссер: Рэндал Клайзер

В ролях: Аманда Байнс, Крис Кармак, Джонатан Беннетт, Джэми-Линн Сиглер, Сьюзэн Дюрден, Фред Уиллард, Джеки Лонг, Джои Керн, Лэнс Басс, Кэти Гриффин...

О фильме: Восемнадцатилетняя Дженни приходит в полный восторг, узнав, что ее любимая рок-звезда Джейсон Мастерс, приехал отдыхать на тропический курорт, где она работает.

Волею несчастного случая они вдвоем попадают на «необитаемый» остров, от которого, на самом деле, рукой подать до большой земли. Но Дженни сохраняет это в тайне. Однако, идиллия на острове длится недолго: «коварное» море выбрасывает новых претенденток на ее кумира!



Страна: США
Продолжительность: 01:26:34
Перевод: Дублированный

Файл
Кодек: x.264
Качество: BDRip-AVC
Видео: 928x496 (1,85:1), 23.976 fps, 1421 kbps, 0.129 bit/pixel
Звук: 48 kHz, AC3 Dolby Digital, 6 ch, ~384.00 kbps
Субтитры: Русские, Английские (отключаемые)

&
Общее
Уникальный идентификатор : 214865539161228516073055496640189657565 (0xA1A598FB93918F64A5673045F6BF71DD)
Полное имя : D:Love Wrecked.2005.BDRip-AVC.mkv
Формат : Matroska
Версия формата : Version 4 / Version 2
Размер файла : 1,09 Гбайт
Продолжительность : 1 ч. 26 м.
Общий поток : 1803 Кбит/сек
Название фильма : Любовь на острове / Love Wrecked (2005) BDRip-AVC rip by Rulya74
Дата кодирования : UTC 2014-01-05 18:56:34
Программа кодирования : mkvmerge v6.5.0 ('Isn't she lovely') built on Oct 20 2013 12:50:05
Библиотека кодирования : libebml v1.3.0 + libmatroska v1.4.1

Видео
Идентификатор : 1
Формат : AVC
Формат/Информация : Advanced Video Codec
Профиль формата : High@L4.1
Параметр CABAC формата : Да
Параметр ReFrames формата : 11 кадров
Идентификатор кодека : V_MPEG4/ISO/AVC
Продолжительность : 1 ч. 26 м.
Битрейт : 1421 Кбит/сек
Ширина : 928 пикселей
Высота : 496 пикселей
Соотношение сторон : 1,85:1
Режим частоты кадров : Постоянный
Частота кадров : 23,976 кадра/сек
Цветовое пространство : YUV
Субдискретизация насыщенности : 4:2:0
Битовая глубина : 8 бит
Тип развёртки : Прогрессивная
Бит/(Пиксели*Кадры) : 0.129
Размер потока : 856 Мбайт (77%)
Библиотека кодирования : x264 core 138 r2358 9e941d1
Настройки программы : cabac=1 / ref=11 / deblock=1:-3:-2 / analyse=0x3:0x112 / me=umh / subme=11 / psy=1 / psy_rd=1.10:0.22 / mixed_ref=1 / me_range=48 / chroma_me=1 / trellis=2 / 8x8dct=1 / cqm=0 / deadzone=21,11 / fast_pskip=0 / chroma_qp_offset=-3 / threads=4 / lookahead_threads=1 / sliced_threads=0 / nr=0 / decimate=1 / interlaced=0 / bluray_compat=0 / constrained_intra=0 / bframes=8 / b_pyramid=2 / b_adapt=1 / b_bias=0 / direct=3 / weightb=1 / open_gop=0 / weightp=2 / keyint=240 / keyint_min=23 / scenecut=40 / intra_refresh=0 / rc_lookahead=40 / rc=2pass / mbtree=1 / bitrate=1421 / ratetol=1.0 / qcomp=0.60 / qpmin=0 / qpmax=69 / qpstep=4 / cplxblur=20.0 / qblur=0.5 / vbv_maxrate=62500 / vbv_bufsize=78125 / nal_hrd=none / ip_ratio=1.40 / aq=1:1.00
Default : Да
Forced : Нет

Аудио
Идентификатор : 2
Формат : AC-3
Формат/Информация : Audio Coding 3
Расширение режима : CM (complete main)
Параметр Endianness формата : Big
Идентификатор кодека : A_AC3
Продолжительность : 1 ч. 26 м.
Вид битрейта : Постоянный
Битрейт : 384 Кбит/сек
Каналы : 6 каналов
Расположение каналов : Front: L C R, Side: L R, LFE
Частота : 48,0 КГц
Битовая глубина : 16 бит
Метод сжатия : С потерями
Размер потока : 238 Мбайт (21%)
Заголовок : Дублированный
Язык : Russian
Default : Да
Forced : Нет

Текст #1
Идентификатор : 3
Формат : UTF-8
Идентификатор кодека : S_TEXT/UTF8
Идентификатор кодека/Информация : UTF-8 Plain Text
Язык : Russian
Default : Да
Forced : Нет

Текст #2
Идентификатор : 4
Формат : UTF-8
Идентификатор кодека : S_TEXT/UTF8
Идентификатор кодека/Информация : UTF-8 Plain Text
Язык : English
Default : Нет
Forced : Нет

Меню
00:00:00.000 : en:00:00:00.000
00:04:36.359 : en:00:04:36.359
00:07:31.910 : en:00:07:31.910
00:15:33.558 : en:00:15:33.558
00:20:13.170 : en:00:20:13.170
00:22:53.581 : en:00:22:53.581
00:28:14.776 : en:00:28:14.776
00:30:47.596 : en:00:30:47.596
00:37:30.123 : en:00:37:30.123
00:43:02.705 : en:00:43:02.705
00:48:50.469 : en:00:48:50.469
01:01:11.918 : en:01:01:11.918
01:05:05.443 : en:01:05:05.443
01:09:23.785 : en:01:09:23.785
01:13:21.272 : en:01:13:21.272



Скачать Любовь.на.острове.Love.Wrecked.(Рэндал.Клайзер).[2005.мелодрама.комедия.приключения.BDRip-AVC].[Dub]+[Sub].torrent без регистрации
Золото ЗОЛОТАЯ РАЗДАЧА! СКАЧАННОЕ НЕ ЗАСЧИТЫВАЕТСЯ! Золото
Дата: Зарегистрирован   [ Тип: внутренний ] Как тут cкачать?
MAGNET ссылка
MAGNET ссылка


Скачать .torrent

11 KB

Статус: проверено DHT
Скачан: торрент - 131 раз, раздача полностью - 5 раз
Размер: 1,09 GB
Оценка:  - (Голосов: 0)
Поблагодарили: 2
Поделиться ссылкой на эту раздачу с друзьями:
В контактеFacebookОдноклассникиTwitterLivejournalМой МирLiveinternet
 

 
Показать сообщения:    


Вы не можете начинать темы
Вы не можете отвечать на сообщения
Вы не можете редактировать свои сообщения
Вы не можете удалять свои сообщения
Вы не можете голосовать в опросах
Вы не можете прикреплять файлы к сообщениям
Вы можете скачивать файлы