Loading...
Error

Скачать Борджиа / The Borgias (Сезон 2: серии 1-10 из 10) (Нил Джордан) [2012, Драма, HDTV] [720p] [rus sub] торрент без регистрации

 
Статистика раздачи
Размер:  12,68 GB   |    Скачан:  256 раз
Сидов:  1  [  0 KB/s  ]  
 
Автор Сообщение

leon030982

[] 

Борджиа - 2 сезон
The Borgias
Год выпуска: 2012

Страна: Канада, Ирландия, Венгрия
Жанр: Драма
Продолжительность: ~50 мин.
Перевод: Отсутствует
Русские субтитры: есть
Субтитры: Vipere77 , loandbehold, tttina и др.
Режиссёр: Нил Джордан
В ролях: Джереми Айронс, Дэвид Оакес , Франсуа Арно , Холлидей Грейнджер ,Лотте Вербеек, Джоанн Уолли, Мишель Мюллер и др.

Описание: Борджиа – сериал об одном из важнейших исторических периодов – эпохе Возрождения и открытии Нового света. Современники да Винчи, Микеланджело и семьи Медичи, Борджиа были неоднозначными и известными фигурами – не столько из-за того, что творили неслыханное, сколько потому, что преуспели в этом больше своих соперников.

Качество: HDTVRip Сэмпл
Формат
: MKV
Видео кодек: H.264
Аудио кодек: AC3
Видео: 1280x720 (16:9), 23.976 fps, 2647 kbps, ~0.120 bit/pixel
Аудио: 48 kHz, 6 ch, ~384 kbps |Original|


Внимание! Раздача ведётся путём добавления новых серий, при каждом добавлении создаётся новый торрент. Чтобы начать докачку новой серии, пользователям необходимо сделать следующее:
(1) остановить скачивание,
(2) удалить старый торрент у себя из клиента (старые серии удалять не надо),
(3) скачать новый торрент и запустить его у себя в клиенте вместо старого, при этом указать клиенту путь в старую папку куда и должно происходить скачивание новых серий.

2.01 - Бык Борджиа - 8 апреля[/b]
2.02 - Паоло - 15 апреля
2.03 - Красивый обман - 22 Апреля
2.04 - Бродячие псы - 29 Апреля
2.05 - Выбор - 6 мая
2.06 - День пепла - 13 Мая
2.07 - Осада в Форли - 20 Мая
2.08 - Правда или Ложь - 27 Мая
2.09 - Мир чудес - 3 июня
2.10 - Исповедь - 10 июня
D:\The Borgias - 2 Season (720p)\The.Borgias.S02E01.720p.mkv
General
Unique ID : 0 (0x0)
Complete name : D:\The Borgias - 2 Season (720p)\The.Borgias.S02E01.720p.mkv
Format : Matroska
Format version : Version 2
File size : 1.14 GiB
Duration : 52mn 47s
Overall bit rate : 3 093 Kbps
Encoded date : UTC 2010-02-22 21:41:29
Writing application : no_variable_data
Writing library : no_variable_data
Video #2
ID : 2
Format : AVC
Format/Info : Advanced Video Codec
Format profile : High@L4.1
Format settings, CABAC : Yes
Format settings, ReFrames : 5 frames
Codec ID : V_MPEG4/ISO/AVC
Duration : 52mn 47s
Bit rate : 2 647 Kbps
Width : 1 280 pixels
Height : 720 pixels
Display aspect ratio : 16:9
Frame rate : 23.976 fps
Color space : YUV
Chroma subsampling : 4:2:0
Bit depth : 8 bits
Scan type : Progressive
Bits/(Pixel*Frame) : 0.120
Stream size : 1 000 MiB (86%)
Writing library : x264 core 122 r2184M 5c85e0a
Encoding settings : cabac=1 / ref=5 / deblock=1:0:0 / analyse=0x3:0x113 / me=umh / subme=8 / psy=1 / psy_rd=1.00:0.00 / mixed_ref=1 / me_range=16 / chroma_me=1 / trellis=1 / 8x8dct=1 / cqm=0 / deadzone=21,11 / fast_pskip=1 / chroma_qp_offset=-2 / threads=12 / sliced_threads=0 / nr=0 / decimate=1 / interlaced=0 / bluray_compat=0 / constrained_intra=0 / bframes=3 / b_pyramid=2 / b_adapt=2 / b_bias=0 / direct=3 / weightb=1 / open_gop=0 / weightp=2 / keyint=250 / keyint_min=23 / scenecut=40 / intra_refresh=0 / rc_lookahead=50 / rc=crf / mbtree=1 / crf=19.0 / qcomp=0.60 / qpmin=0 / qpmax=69 / qpstep=4 / ip_ratio=1.40 / aq=1:1.00
Language : English
Default : No
Forced : No
Matrix coefficients : BT.709-5, BT.1361, IEC 61966-2-4 709, SMPTE RP177
Audio #1
ID : 1
Format : AC-3
Format/Info : Audio Coding 3
Mode extension : CM (complete main)
Codec ID : A_AC3
Duration : 52mn 47s
Bit rate mode : Constant
Bit rate : 384 Kbps
Channel(s) : 6 channels
Channel positions : Front: L C R, Side: L R, LFE
Sampling rate : 48.0 KHz
Bit depth : 16 bits
Compression mode : Lossy
Stream size : 145 MiB (12%)
Default : Yes
Forced : No



Скачать Борджиа.The.Borgias.(Сезон.2.серии.1-10.из.10).(Нил.Джордан).[2012.Драма.HDTV].[720p].[rus.sub].torrent без регистрации
Золото ЗОЛОТАЯ РАЗДАЧА! СКАЧАННОЕ НЕ ЗАСЧИТЫВАЕТСЯ! Золото
Дата: Зарегистрирован   [ Тип: внутренний ] Как тут cкачать?
MAGNET ссылка
MAGNET ссылка


Скачать .torrent

34 KB

Статус: проверено DHT
Скачан: торрент - 256 раз, раздача полностью - 43 раз
Размер: 12,68 GB
Оценка:  - (Голосов: 0)
Поблагодарили: 2
Поделиться ссылкой на эту раздачу с друзьями:
В контактеFacebookОдноклассникиTwitterLivejournalМой МирLiveinternet
 

 
Показать сообщения:    


Вы не можете начинать темы
Вы не можете отвечать на сообщения
Вы не можете редактировать свои сообщения
Вы не можете удалять свои сообщения
Вы не можете голосовать в опросах
Вы не можете прикреплять файлы к сообщениям
Вы можете скачивать файлы