Loading...
Error

Скачать Дом Саддама / House of Saddam (01-04 из 04) (Алекс Холмс, Джим ОХенлон) [2008, драма, биография, PDTVRip] [MVO] торрент без регистрации

 
Статистика раздачи
Размер:  3,05 GB   |    Скачан:  406 раз

Полного источника не было: 24 минуты

 
Автор Сообщение

МихаНЕзатор

[] 

Название: Дом Саддама
Оригинальное название: House of Saddam
Год выпуска: 2008
Жанр: драма, биография
Режиссер: Алекс Холмс, Джим ОХенлон
В ролях: Игаль Наоль, Шохре Агдашлу, Макрам Кхури, Филипп Ардитти, Мунир Магум, Агни Скотт, Амр Вакед, Ури Гавриэль, Кристин Стивен-Дели, Саид Амадис, Шивани Гхаи

Описание: Картина расскажет о жизни бывшего иракского диктатора с того времени, как он пришел к власти в конце 1970-х годов, до его поимки американскими военными в декабре 2003 года. По словам сценариста Алекса Холмса, в фильме будет представлен «взгляд изнутри» на жизнь бывшего иракского диктатора.

Выпущено: Великобритания, США / BBC Television Centre, HBO Films
Продолжительность: 02 х ~ 00:59:00
Перевод: Профессиональный (многоголосый, закадровый) - 5 канал
Субтитры: Нет

Доп. инфо: 5 канал вырезал некоторые сцены. Перевод на эти места: Любительский (одноголосый, закадровый)



Качество: PDTVRip
Формат: AVI
Видео: XviD, ~ 1520 Кбит/с, 640x352
Аудио rus: MP3, 2 ch, 192 Кбит/с
Аудио eng: MP3, 2 ch, 128 Кбит/с

Релиз от: Faker020285, Beer kolesik Drinkers

19.01.2013 г. торент обновлён, добавлена 3-4 серия!
Формат : AVI
Формат/Информация : Audio Video Interleave
Размер файла : 777 Мбайт
Продолжительность : 58 м.
Общий поток : 1855 Кбит/сек
Программа кодирования : VirtualDubMod 1.5.10.2 (build 2540/release)
Библиотека кодирования : VirtualDubMod build 2540/release

Видео
Идентификатор : 0
Формат : MPEG-4 Visual
Профиль формата : Advanced Simple@L5
Параметр BVOP формата : 2
Параметр QPel формата : Нет
Параметр GMC формата : Без точки перехода
Параметр матрицы формата : Default (H.263)
Режим смешивания : Сжатый битовый поток
Идентификатор кодека : XVID
Идентификатор кодека/Подсказка : XviD
Продолжительность : 58 м.
Битрейт : 1520 Кбит/сек
Ширина : 640 пикс.
Высота : 352 пикс.
Соотношение сторон : 16:9
Частота кадров : 25,000 кадр/сек
Цветовое пространство : YUV
Подвыборка цветности : 4:2:0
Битовая глубина : 8 бит
Тип развёртки : Прогрессивная
Метод сжатия : С потерями
Бит/(Пиксели*Кадры) : 0.270
Размер потока : 637 Мбайт (82%)
Библиотека кодирования : XviD 1.0.3 (UTC 2004-12-20)

Аудио #1
Идентификатор : 1
Формат : MPEG Audio
Версия формата : Version 1
Профиль формата : Layer 3
Режим : Joint stereo
Идентификатор кодека : 55
Идентификатор кодека/Подсказка : MP3
Продолжительность : 58 м.
Вид битрейта : Постоянный
Битрейт : 192 Кбит/сек
Каналы : 2 канала
Частота : 48,0 КГц
Метод сжатия : С потерями
Размер потока : 80,4 Мбайт (10%)
Выравнивание : Соединение по промежуткам
Продолжительность промежутка : 40 мс. (1,00 видеокадр)
Время предзагрузки промежутка : 504 ms

Аудио #2
Идентификатор : 2
Формат : MPEG Audio
Версия формата : Version 1
Профиль формата : Layer 3
Режим : Joint stereo
Расширение режима : MS Stereo
Идентификатор кодека : 55
Идентификатор кодека/Подсказка : MP3
Продолжительность : 58 м.
Вид битрейта : Постоянный
Битрейт : 128 Кбит/сек
Каналы : 2 канала
Частота : 48,0 КГц
Метод сжатия : С потерями
Размер потока : 53,6 Мбайт (7%)
Выравнивание : Соединение по промежуткам
Продолжительность промежутка : 40 мс. (1,00 видеокадр)
Время предзагрузки промежутка : 504 ms



Скачать Дом.Саддама.House.of.Saddam.(01-04.из.04).(Алекс.Холмс.Джим.ОХенлон).[2008.драма.биография.PDTVRip].[MVO].torrent без регистрации
Золото ЗОЛОТАЯ РАЗДАЧА! СКАЧАННОЕ НЕ ЗАСЧИТЫВАЕТСЯ! Золото
Дата: Зарегистрирован   [ Тип: внутренний ] Как тут cкачать?
MAGNET ссылка
MAGNET ссылка


Скачать .torrent

16 KB

Статус: проверено DHT
Скачан: торрент - 406 раз, раздача полностью - 45 раз
Размер: 3,05 GB
Оценка:  - (Голосов: 0)
Поблагодарили: 1
Поделиться ссылкой на эту раздачу с друзьями:
В контактеFacebookОдноклассникиTwitterLivejournalМой МирLiveinternet
 

 
Показать сообщения:    


Вы не можете начинать темы
Вы не можете отвечать на сообщения
Вы не можете редактировать свои сообщения
Вы не можете удалять свои сообщения
Вы не можете голосовать в опросах
Вы не можете прикреплять файлы к сообщениям
Вы можете скачивать файлы