Loading...
Error

Скачать Алькатрас / Alcatraz (Сезон 1 ) (Джек Бендер) [2012, Триллер, WEB-DLRip] [400p] (Lostfilm) торрент без регистрации

 
Статистика раздачи
Размер:  11,04 GB   |    Скачан:  209 раз
Сидов:  1  [  0 KB/s  ]  
 
Автор Сообщение

leon030982

[] 

Алькатрас
Alcatraz
___________________
___________________
Год выпуска • 2012
Страна • США
Жанр • Триллер

Режиссёр • Брэд Андерсон, Джек Бендер, Дэнни Кэннон
В ролях • Джонатан Койн, Сэмюэл Патрик Чу, Хорхе Гарсиа, Сара Джонс, Джеффри Пирс, Дэвид Хофлин, Joe Egender, Джинэнн Гуссен, Сэм Нил, Джеймс Бэмфорд, и др.

Описание • История доктора Диего Сото, лучшего в мире знатока самой знаменитой американской тюрьмы «Алькатрас», расположенной на острове у берегов Сан-Франциско. Сото предстоит разгадать тайну, связанную с загадочным исчезновением заключенных и охранников «Алькатраса» много лет назад и неожиданным их появлением в уже недействующей тюрьме (она была закрыта в 1963 году) в наши дни.


Озвучание • Профессиональный (многоголосый, закадровый) « Lostfilm »

Продолжительность: ~ 44 Мин.(1 серия)
Качество: WEB-DLRip
Формат: AVI
Видео: XVID 1 689 Kbps , 720:400p , 23.976 fps , 16:9 , 0.245 bit/pixel
Аудио:
Русский Audio Layer 3 (2.0) 48 kHz , 192 kbps
Субтитры:нет
General
Complete name : D:\Alcatraz Lostfilm\Alcatraz.s01e01e02.rus.LostFilm.TV.avi
Format : AVI
Format/Info : Audio Video Interleave
File size : 1.21 GiB
Duration : 1h 28mn
Overall bit rate mode : Variable
Overall bit rate : 1 967 Kbps
Writing application : Nandub v1.0rc2
Writing library : Nandub build 1853/release
Video
ID : 0
Format : MPEG-4 Visual
Format profile : Simple@L3
Format settings, BVOP : No
Format settings, QPel : No
Format settings, GMC : No warppoints
Format settings, Matrix : Default (H.263)
Codec ID : XVID
Codec ID/Hint : XviD
Duration : 1h 28mn
Bit rate : 1 689 Kbps
Width : 720 pixels
Height : 400 pixels
Display aspect ratio : 16:9
Frame rate : 23.976 fps
Color space : YUV
Chroma subsampling : 4:2:0
Bit depth : 8 bits
Scan type : Progressive
Compression mode : Lossy
Bits/(Pixel*Frame) : 0.245
Stream size : 1.04 GiB (86%)
Writing library : XviD 1.2.1 (UTC 2008-12-04)
Audio
ID : 1
Format : MPEG Audio
Format version : Version 1
Format profile : Layer 3
Mode : Joint stereo
Mode extension : MS Stereo
Codec ID : 55
Codec ID/Hint : MP3
Duration : 1h 28mn
Bit rate mode : Variable
Bit rate : 192 Kbps
Channel(s) : 2 channels
Sampling rate : 48.0 KHz
Compression mode : Lossy
Stream size : 121 MiB (10%)
Alignment : Aligned on interleaves
Writing library : LAME3.97b
Encoding settings : -m j -V 4 -q 3 -lowpass 18.6 --abr 192
Семпл
Внимание! Раздача ведётся путём добавления новых серий; при каждом добавлении создётся новый торрент. Чтобы начать докачку новой серии, пользователям необходимо сделать следующее: (1) остановить скачивание, (2) удалить старый торрент у себя из клиента (старые серии удалять не надо), (3) скачать новый торрент и запустить его у себя в клиенте вместо старого, при этом указать клиенту путь в старую папку куда и должно происходить скачивание новых серий.
Ваш клиент при этом должен произвести хеширование (проверку) старой папки (если не производит сам - помогите ему сделать это), и будет докачивать только те серии которых у вас ещё нет. Старые серии при этом не удаляются, а продолжают раздаваться!
Eсли вы уже удалили старые серии, то предотвратить повторную закачку старых серий можно, отжав галочку в соответсвующих местах при запуске нового торрента.
ВНИМАНИЕ!!!Раздача обновленна 01.04.12 добавленна финальная 13-я серия!!!Перекачайте торент



Скачать Алькатрас.Alcatraz.(Сезон.1.).(Джек.Бендер).[2012.Триллер.WEB-DLRip].[400p].(Lostfilm).torrent без регистрации
Золото ЗОЛОТАЯ РАЗДАЧА! СКАЧАННОЕ НЕ ЗАСЧИТЫВАЕТСЯ! Золото
Дата: Зарегистрирован   [ Тип: внутренний ] Как тут cкачать?
MAGNET ссылка
MAGNET ссылка


Скачать .torrent

58 KB

Статус: проверено DHT
Скачан: торрент - 209 раз, раздача полностью - 64 раз
Размер: 11,04 GB
Оценка:  5 (Голосов: 3)
Поблагодарили: 8
Поделиться ссылкой на эту раздачу с друзьями:
В контактеFacebookОдноклассникиTwitterLivejournalМой МирLiveinternet
 

 

вентилятор.ру

[] 

Интересный сериал, смотреть всем! Раздающему спасибо!
 
Показать сообщения:    


Вы не можете начинать темы
Вы не можете отвечать на сообщения
Вы не можете редактировать свои сообщения
Вы не можете удалять свои сообщения
Вы не можете голосовать в опросах
Вы не можете прикреплять файлы к сообщениям
Вы можете скачивать файлы