Loading...
Error

/ The Borgias ( 2: 1-6 10) ( , , ) [2012, , , , HDTV] [1080i] [LostFilm]

 
32,93 GB   |    :  139
1  [  0 KB/s  ]  
 

leon030982

[] 

/ The Borgias
: 2012
: , ,
: , ,
: 00:50:00
: , LostFilm
:
: ,
: , ,
: , , , , , , , , ,

: XV : , . . 1492 , VIII, VI ( ), ...



: http://multi-up.com/686687
: HDTV 1080i
: TS
: MPEG2
: AC3
: The Borgias S02 ShoHD On Demand 1080i DD5.1-ALANiS
: MPEG-2, 1920x1080i, 29.97 fps, ~13.4 Mbps, 0.22 bit/pixel
#1: : 48 kHz, AC3, 3/2 (L,C,R,l,r) + LFE ch, ~384.00 kbps avg | , LostFilm|
#2: : 48 kHz, AC3, 3/2 (L,C,R,l,r) + LFE ch, ~384.00 kbps avg
1. The Borgia Bull /

:

General
ID : 1 (0x1)
Complete name : The.Borgias.S02E01.1080i.HDTV.Rus.Eng.HDCLUB.ts
Format : MPEG-TS
File size : 5.59 GiB
Duration : 53mn 34s
Overall bit rate mode : Variable
Overall bit rate : 14.9 Mbps
Maximum Overall bit rate : 35.5 Mbps
Video
ID : 4113 (0x1011)
Menu ID : 1 (0x1)
Format : MPEG Video
Format version : Version 2
Format profile : Main@High
Format settings, BVOP : Yes
Format settings, Matrix : Custom
Codec ID : 2
Duration : 53mn 34s
Bit rate mode : Variable
Bit rate : 13.4 Mbps
Maximum bit rate : 13.7 Mbps
Width : 1 920 pixels
Height : 1 080 pixels
Display aspect ratio : 16:9
Frame rate : 29.970 fps
Color space : YUV
Chroma subsampling : 4:2:0
Bit depth : 8 bits
Scan type : Interlaced
Scan order : Top Field First
Compression mode : Lossy
Bits/(Pixel*Frame) : 0.216
Stream size : 5.02 GiB (90%)
Audio #1
ID : 4352 (0x1100)
Menu ID : 1 (0x1)
Format : AC-3
Format/Info : Audio Coding 3
Mode extension : CM (complete main)
Codec ID : 129
Duration : 53mn 34s
Bit rate mode : Constant
Bit rate : 384 Kbps
Channel(s) : 6 channels
Channel positions : Front: L C R, Side: L R, LFE
Sampling rate : 48.0 KHz
Bit depth : 16 bits
Compression mode : Lossy
Stream size : 147 MiB (3%)
Language : Russian
Audio #2
ID : 4353 (0x1101)
Menu ID : 1 (0x1)
Format : AC-3
Format/Info : Audio Coding 3
Mode extension : CM (complete main)
Codec ID : 129
Duration : 53mn 34s
Bit rate mode : Constant
Bit rate : 384 Kbps
Channel(s) : 6 channels
Channel positions : Front: L C R, Side: L R, LFE
Sampling rate : 48.0 KHz
Bit depth : 16 bits
Compression mode : Lossy
Stream size : 147 MiB (3%)
Language : English
Text #1
ID : 4113 (0x1011)-608-1
Menu ID : 1 (0x1)
Format : EIA-608
Muxing mode : A/53 / DTVCC Transport
Muxing mode, more info : Muxed in Video #1
Duration : 53mn 34s
Bit rate mode : Constant
Stream size : 0.00 Byte (0%)
Text #2
ID : 4113 (0x1011)-1
Menu ID : 1 (0x1)
Format : EIA-708
Muxing mode : A/53 / DTVCC Transport
Muxing mode, more info : Muxed in Video #1
Duration : 53mn 34s
Bit rate mode : Constant
Stream size : 0.00 Byte (0%)
! , . , :
(1) ,
(2) ( ),
(3) , .
() ( - ), . , !
, , . , , .



.The.Borgias.(.2..1-6..10).(......).[2012....HDTV].[1080i].[LostFilm].torrent
  ! ! 
:   [ : ] c?
MAGNET
MAGNET


.torrent

167 KB

: DHT
: - 139 , - 2
: 32,93 GB
- (: 0)
: 1
:
 FacebookTwitterLivejournal Liveinternet
 

 
: