Loading...
Error

Скачать Элементарно / Elementary (сезон 02) (Джон Дэвид Коулз, Майкл Куэста) [2013, криминал, драма, детектив WEB-DLRip-AVC] [MVO (LostFilm)] торрент без регистрации

 
Статистика раздачи
Размер:  16,73 GB   |    Скачан:  3395 раз
Сидов:  1  [  0 KB/s  ]  
 
Автор Сообщение

МихаНЕзатор

[] 

Информация о фильме
Название: Элементарно
Оригинальное название: Elementary
Год выпуска: 2013
Жанр: Драма, криминал, детектив
Режиссер: Джон Полсон, Эндрю Бернштейн, Сет Манн

В ролях: Джонни Ли Миллер, Люси Лью, Эйдан Куинн, Джон Майкл Хилл, Натали Дормер, Ато Эссонда, Линда Эмонд, Майкл Ден Деккер, Винни Джонс, Эрик Дженсен

О фильме: Британский сыщик Шерлок Холмс бывший наркоман, который был отправлен в Нью-Йорк на лечение в реабилитационный центр, а по завершении лечения остался в Бруклине как консультант Нью-Йоркской полиции. В расследованиях ему помогает его компаньон-наблюдатель доктор Джоан Ватсон, нанятая его отцо



Страна: США
Студия: CBS Television Studios, Hill of Beans Productions, Timberman-Beverly Productions
Продолжительность: 22 x ~ 00:43:27
Перевод: Профессиональный многоголосый

Файл
Кодек: AVC
Качество: WEB-DLRip-AVC
Видео: ~ 2166 Кбит/с, 896x504, 23.976 fps
Звук: АС3, 2 ch, 128 Кбит/с

АНОНСЫ ПОПУЛЯРНЫХ РАЗДАЧ


12.06.2014 г. торент обновлён, добавлена 24-я серия!
General
Unique ID : 214330911457092509343493373333336818905 (0xA13EA1CD431E84EC9F03A68D724D04D9)
Complete name : F:СериалElementary.S02.WEB-DLRip-AVC.[-=DoMiNo=-].LostFilmElementary.S02E18.mkv
Format : Matroska
Format version : Version 2
File size : 714 MiB
Duration : 43mn 27s
Overall bit rate : 2 296 Kbps
Encoded date : UTC 2014-03-22 22:06:14
Writing application : mkvmerge v6.1.0 ('Old Devil') built on Mar 4 2013 09:10:42
Writing library : libebml v1.3.0 + libmatroska v1.4.0

Video
ID : 1
Format : AVC
Format/Info : Advanced Video Codec
Format profile : High@L4.1
Format settings, CABAC : Yes
Format settings, ReFrames : 11 frames
Codec ID : V_MPEG4/ISO/AVC
Duration : 43mn 27s
Bit rate : 2 166 Kbps
Width : 896 pixels
Height : 504 pixels
Display aspect ratio : 16:9
Frame rate mode : Constant
Frame rate : 23.976 fps
Color space : YUV
Chroma subsampling : 4:2:0
Bit depth : 8 bits
Scan type : Progressive
Bits/(Pixel*Frame) : 0.200
Stream size : 660 MiB (92%)
Writing library : x264 core 130 r2273 b3065e6
Encoding settings : cabac=1 / ref=11 / deblock=1:-3:-3 / analyse=0x3:0x133 / me=umh / subme=11 / psy=1 / psy_rd=1.00:0.20 / mixed_ref=1 / me_range=32 / chroma_me=1 / trellis=2 / 8x8dct=1 / cqm=0 / deadzone=21,11 / fast_pskip=0 / chroma_qp_offset=-6 / threads=16 / lookahead_threads=4 / sliced_threads=0 / slices=4 / nr=0 / decimate=1 / interlaced=0 / bluray_compat=0 / constrained_intra=0 / bframes=8 / b_pyramid=2 / b_adapt=2 / b_bias=0 / direct=3 / weightb=1 / open_gop=0 / weightp=2 / keyint=240 / keyint_min=23 / scenecut=40 / intra_refresh=0 / rc_lookahead=50 / rc=2pass / mbtree=1 / bitrate=2166 / ratetol=1.0 / qcomp=0.60 / qpmin=10 / qpmax=51 / qpstep=4 / cplxblur=20.0 / qblur=0.5 / ip_ratio=1.40 / aq=1:1.50
Default : Yes
Forced : No

Audio
ID : 2
Format : AC-3
Format/Info : Audio Coding 3
Mode extension : CM (complete main)
Format settings, Endianness : Big
Codec ID : A_AC3
Duration : 43mn 27s
Bit rate mode : Constant
Bit rate : 128 Kbps
Channel(s) : 2 channels
Channel positions : Front: L R
Sampling rate : 48.0 KHz
Bit depth : 16 bits
Compression mode : Lossy
Stream size : 39.8 MiB (6%)
Default : Yes
Forced : No



Скачать Элементарно.Elementary.(сезон.02).(Джон.Дэвид.Коулз.Майкл.Куэста).[2013.криминал.драма.детектив.WEB-DLRip-AVC].[MVO.(LostFilm)].torrent без регистрации
Золото ЗОЛОТАЯ РАЗДАЧА! СКАЧАННОЕ НЕ ЗАСЧИТЫВАЕТСЯ! Золото
Дата: Зарегистрирован   [ Тип: внутренний ] Как тут cкачать?
MAGNET ссылка
MAGNET ссылка


Скачать .torrent

44 KB

Статус: проверено DHT
Скачан: торрент - 3395 раз, раздача полностью - 131 раз
Размер: 16,73 GB
Оценка:  - (Голосов: 0)
Поблагодарили: 4
Поделиться ссылкой на эту раздачу с друзьями:
В контактеFacebookОдноклассникиTwitterLivejournalМой МирLiveinternet
 

 

МихаНЕзатор

[] 

Раздача обновлена.
 
Показать сообщения:    


Вы не можете начинать темы
Вы не можете отвечать на сообщения
Вы не можете редактировать свои сообщения
Вы не можете удалять свои сообщения
Вы не можете голосовать в опросах
Вы не можете прикреплять файлы к сообщениям
Вы можете скачивать файлы