Loading...
Error

Скачать Лиллехаммер / Lilyhammer (Полный 1-ый сезон) (Geir Henning Hopland, Simen Alsvik) [2012, комедия, драма, криминальный, BDRip] [720p] [AVO] (Ю. Сербин) торрент без регистрации

 
Статистика раздачи
Размер:  18,39 GB   |    Скачан:  183 раза
Сидов:  1  [  0 KB/s  ]  
 
Автор Сообщение

leon030982

[] 



Лиллехаммер / Lilyhammer


Год выпуска: 2012
Страна: Норвегия
Жанр: комедия, драма, криминальный
Продолжительность: ~ 44 минуты
Перевод: Авторский (одноголосый, закадровый) - Ю. Сербин
Субтитры: Норвежские
Режиссёр: Geir Henning Hopland, Simen Alsvik, Lisa Marie Gamlem
В ролях: Steve Van Zandt, Trond Fausa Aurvaag, Marian Saastad Ottesen, Steinar Sagen, Sven Nordin, Anne Krigsvoll, Fridtjov Såheim, Mikael Aksnes-Pehrson и др.
Описание: Тальяно сдал своего босса федералам, и теперь, в рамках программы по защите свидетелей, он переезжает в Лиллехаммер, небольшой норвежский городок, когда-то приютивший зимние олимпийские игры. Сам Фрэнк называет его Лилихэммером, отсюда и название сериала. Фрэнк мечтает о рае с «чистым воздухом, белым снегом и клевыми телками», вдали от соблазнов Нью-Йорка и от карателей мафии. Реальность, конечно же, оказывается не такой, как мечты.
Качество: BDRip 720p
Формат: MKV
Видео кодек: H.264
Аудио кодек: AC3
Видео: 1280x720 (16:9), 25.000 fps, ~5000 kbps, ~0.220 bit/pixel
Аудио Rus: 48 kHz, 6 ch, ~640 kbps |Ю. Сербин|
Аудио Eng: 48 kHz, 6 ch, ~640 kbps |Original|

Перевод и озвучка: Ю. Сербин
/ Сэмпл / ImDB / Кинопоиск
3. Guantanamo Blues / Блюз по Гуантанамо
4. The Midwife / Повитуха
5. My Kind of Town
6. Pack Your Lederhosen
7. The Babysitter
8. Trolls
[b]Общее
Уникальный идентификатор : 236521688498606921540856988247074928813 (0xB1F06B94B1D212EEB11312BC9E25F8AD)
Формат : Matroska
Версия формата : Version 2
Размер файла : 1,76 Гбайт
Продолжительность : 45 м.
Общий поток : 5591 Кбит/сек
Дата кодирования : UTC 2012-04-16 13:48:15
Программа кодирования : mkvmerge v4.0.0 ('The Stars were mine') сборка от Jun 6 2010 16:18:42
Библиотека кодирования : libebml v1.0.0 + libmatroska v1.0.0
Видео
Идентификатор : 1
Формат : AVC
Формат/Информация : Advanced Video Codec
Профиль формата : High@L4.1
Параметр CABAC формата : Да
Параметр ReFrames формата : 9 кадров
Идентификатор кодека : V_MPEG4/ISO/AVC
Продолжительность : 45 м.
Битрейт : 4200 Кбит/сек
Ширина : 1280 пикс.
Высота : 720 пикс.
Соотношение сторон : 16:9
Частота кадров : 25,000 кадр/сек
Цветовое пространство : YUV
Подвыборка цветности : 4:2:0
Битовая глубина : 8 бит
Тип развёртки : Прогрессивная
Бит/(Пиксели*Кадры) : 0.182
Размер потока : 1,33 Гбайт (75%)
Заголовок : Lilyhammer - Season 1, Episode 1: Reality Check ("С Небес На Землю")
Библиотека кодирования : x264 core 122 r2184 5c85e0a
Настройки программы : cabac=1 / ref=9 / deblock=1:-3:-3 / analyse=0x3:0x133 / me=umh / subme=10 / psy=1 / psy_rd=1.10:0.00 / mixed_ref=1 / me_range=24 / chroma_me=1 / trellis=2 / 8x8dct=1 / cqm=0 / deadzone=21,11 / fast_pskip=1 / chroma_qp_offset=-2 / threads=12 / sliced_threads=0 / nr=0 / decimate=1 / interlaced=0 / bluray_compat=0 / constrained_intra=0 / bframes=8 / b_pyramid=2 / b_adapt=2 / b_bias=0 / direct=3 / weightb=1 / open_gop=0 / weightp=2 / keyint=250 / keyint_min=25 / scenecut=40 / intra_refresh=0 / rc_lookahead=60 / rc=crf / mbtree=1 / crf=15.0 / qcomp=0.60 / qpmin=0 / qpmax=69 / qpstep=4 / vbv_maxrate=50000 / vbv_bufsize=50000 / crf_max=0.0 / nal_hrd=none / ip_ratio=1.40 / aq=1:0.60
Язык : Norwegian
Аудио #1
Идентификатор : 2
Формат : AC-3
Формат/Информация : Audio Coding 3
Расширение режима : CM (complete main)
Идентификатор кодека : A_AC3
Продолжительность : 45 м.
Вид битрейта : Постоянный
Битрейт : 640 Кбит/сек
Каналы : 6 каналов
Расположение каналов : Front: L C R, Side: L R, LFE
Частота : 48,0 КГц
Битовая глубина : 16 бит
Метод сжатия : С потерями
Размер потока : 207 Мбайт (11%)
Заголовок : Dolby Digital 5.1 @ 640 kbps
Язык : Russian
Аудио #2
Идентификатор : 3
Формат : AC-3
Формат/Информация : Audio Coding 3
Расширение режима : CM (complete main)
Идентификатор кодека : A_AC3
Продолжительность : 45 м.
Вид битрейта : Постоянный
Битрейт : 640 Кбит/сек
Каналы : 6 каналов
Расположение каналов : Front: L C R, Side: L R, LFE
Частота : 48,0 КГц
Битовая глубина : 16 бит
Метод сжатия : С потерями
Размер потока : 207 Мбайт (11%)
Заголовок : Dolby Digital 5.1 @ 640 kbps
Язык : Norwegian
Текст
Идентификатор : 4
Формат : UTF-8
Идентификатор кодека : S_TEXT/UTF8
Идентификатор кодека/Информация : UTF-8 Plain Text
Язык : Norwegian
Меню
00:00:00.000 : :1
00:08:19.240 : :2
00:17:46.480 : :3
00:27:53.680 : :4
00:37:17.840 : :5
Выражаем благодарность пользователям, оказавшим поддержку в подготовке данного релиза: markin555, carefree69, HPotter, masha382, sashasushko, Loki1982, Zeitroid, welovedoit, 48ronin, Konerld, bolgarin, bearrrrrr, 771, Parasiteis, zeleniydzhan, Muma, usacha, andreylis, iRambo, Telperion, lostone, kalmykovkww, AZGARD66, tonST7, aleex.



Скачать Лиллехаммер.Lilyhammer.(Полный.1-ый.сезон).(Geir.Henning.Hopland.Simen.Alsvik).[2012.комедия.драма.криминальный.BDRip].[720p].[AVO].(Ю.Сербин).torrent без регистрации
Золото ЗОЛОТАЯ РАЗДАЧА! СКАЧАННОЕ НЕ ЗАСЧИТЫВАЕТСЯ! Золото
Дата: Зарегистрирован   [ Тип: внутренний ] Как тут cкачать?
MAGNET ссылка
MAGNET ссылка


Скачать .torrent

93 KB

Статус: проверено DHT
Скачан: торрент - 183 раз, раздача полностью - 158 раз
Размер: 18,39 GB
Оценка:  5 (Голосов: 2)
Поблагодарили: 4
Поделиться ссылкой на эту раздачу с друзьями:
В контактеFacebookОдноклассникиTwitterLivejournalМой МирLiveinternet
 

 
Показать сообщения:    


Вы не можете начинать темы
Вы не можете отвечать на сообщения
Вы не можете редактировать свои сообщения
Вы не можете удалять свои сообщения
Вы не можете голосовать в опросах
Вы не можете прикреплять файлы к сообщениям
Вы можете скачивать файлы