Loading...
Error

Скачать Шерлок / Шерлок Холмс / Sherlock (сезоны 01-02) (Пол Макгиган) [2010-2012, детектив, SATRip] [Первый канал] торрент без регистрации

 
Статистика раздачи
Размер:  8,21 GB   |    Скачан:  566 раз
Сидов:  1  [  0 KB/s  ]  
 
Автор Сообщение

МихаНЕзатор

[] 

Информация о фильме
Название: Шерлок Холмс
Оригинальное название: Sherlock
Год выхода: 2010-2012
Жанр: детектив
Режиссер: Пол Макгиган

В ролях: Бенедикт Камбербэтч, Мартин Фриман, Руперт Грейвз, Уна Стаббс, Лу Брили, Зои Телфорд, Питер Брук, Джемма Чан, Виннет Робинсон, Джини Спар

О фильме:
«Шерлок», другой вариант перевода названия «Шерлок Холмс» (англ. Sherlock) британский телесериал компании «Хартсвуд филмс», снятый для BBC Wales. Сюжет экранизирует произведения Артура Конан Дойля о Шерлоке Холмсе, перенося действие в наши дни.

Официальный сайт

Страна: Великобритания
Продолжительность каждой серии: 01:28:00
Перевод: Полное дублирование /Первый канал/
SMS сообщения и сцены дедукции на русском, без субтитров (см.скрины)

Файл
Качество: SATRip
Формат: AVI
Кодек: XviD
Аудио кодек: MP3

Видео: 704x400 (1.76:1), 25 fps, XviD build 50 ~2000 kbps avg, 0.29 bit/pixel
Звук: 48 kHz, MPEG Layer 3, 2 ch, ~192.00 kbps avg
Субтитры: отсутствуют


1 сезон, 1 серия. "Этюд в розовых тонах". 2010 год. Четыре таинственных самоубийства, следующих друг за другом, ставят в тупик лондонскую полицию. Инспектор Скотланд-Ярда Лестрейд обращается за помощью к детективу-консультанту Шерлоку Холмсу. Вместе со своим компаньоном доктором Уотсоном Холмс осматривает заброшенный дом - последнее место происшествия, где найдена мертвой женщина, одетая в розовое. Перед смертью погибшая хотела написать какое-то слово. Используя свое излюбленное орудие метод дедукции, Холмс приходит к выводу, что все четыре эпизода - дело рук серийного убийцы
1 сезон, 2 серия. "Слепой банкир". Университетский приятель Холмса приглашает его расследовать взлом в кабинете президента банка. Воры ничего не взяли, но оставили на стене странные знаки. Холмсу удается вычислить человека, которому адресовано это послание. Им оказывается брокер Ван Кун. Но его обнаруживают застреленным в комнате с закрытыми изнутри окнами и дверями. Вскоре происходит еще одно убийство - журналист с огнестрельным ранением найден у себя дома. В деле фигурируют все те же странные знаки
1 сезон, 3 серия. "Большая игра". К Шерлоку обращается его брат Майкрофт с просьбой расследовать смерть госслужащего Эндрю Веста, в руках которого оказалась секретные чертежи ракет. Холмс отказывает. Он намерен заняться делом о взрыве в доме напротив Бейкер-стрит, 221Б, которое предложил ему Лестрейд. Подрывник оставил Шерлоку послание мобильный телефон с фотографией некой комнаты. А вскоре, на подброшенный Холмсу мобильный поступает звонок от неизвестной плачущей женщины, которая сообщает, что у Шерлока есть только 24 часа на решение предложенной ему загадки, иначе подрывник продолжит свое дело...
2 сезон, 1 серия. "Скандал в Белгравии". Таинственное происшествие под Лондоном вызывает интерес Шерлока. Но когда он решает вплотную заняться делом о заглохшей машине, Майкрофт неожиданно просит о помощи. Щекотливая история об аферистке Ирэн Адлер и двусмысленных фотографиях, компрометирующих самых высокопоставленных лиц страны, перерастает в дело, напрямую затрагивающее вопросы национальной безопасности. Чем обернется оно для прославленного сыщика?
2 сезон, 2 серия. "Собаки Баскервиля". К Шерлоку за помощью обращается сэр Генри. В детстве, он стал свидетелем гибели своего отца из-за гигантской собаки-монстра. С тех пор Генри преследуют ночные кошмары, а теперь к ним добавились еще и страшные предчувствия. Шерлок и Ватсон отправляются в поместье Генри. Недалеко от него, в местечке Баскервиль, находится военная база, на которой проводят сверхсекретные эксперименты
2 сезон, 3 серия. "Рейхенбахский водопад". Давний противник Холмса Джеймс Мориарти проникает в Лондонский Тауэр, где выставлены драгоценности английской короны, нейтрализует охрану и разбивает витрину. Полицейские находят его сидящим на троне в королевской короне. В это же время Холмс получает от Мориарти сообщение: "Выходи поиграем". Над преступником должен состояться суд, на котором Холмс будет выступать в качестве свидетеля

General
Complete name : Sherlock.s1e01.satrip.1tv.avi
Format : AVI
Format/Info : Audio Video Interleave
File size : 1.37 GiB
Duration : 1h 28mn
Overall bit rate : 2 223 Kbps
Writing application : VirtualDubMod 1.5.10.3 | www.virtualdub-fr.org || (build 2550/release)
Writing library : VirtualDubMod build 2550/release

Video
ID : 0
Format : MPEG-4 Visual
Format profile : Advanced Simple@L5
Format settings, BVOP : 1
Format settings, QPel : Yes
Format settings, GMC : No warppoints
Format settings, Matrix : Default (MPEG)
Codec ID : XVID
Codec ID/Hint : XviD
Duration : 1h 28mn
Bit rate : 2 022 Kbps
Width : 704 pixels
Height : 400 pixels
Display aspect ratio : 16:9
Frame rate : 25.000 fps
Color space : YUV
Chroma subsampling : 4:2:0
Bit depth : 8 bits
Scan type : Progressive
Compression mode : Lossy
Bits/(Pixel*Frame) : 0.287
Stream size : 1.24 GiB (91%)
Writing library : XviD 1.2.1 (UTC 2008-12-04)

Audio
ID : 1
Format : MPEG Audio
Format version : Version 1
Format profile : Layer 3
Codec ID : 55
Codec ID/Hint : MP3
Duration : 1h 28mn
Bit rate mode : Constant
Bit rate : 192 Kbps
Channel(s) : 2 channels
Sampling rate : 48.0 KHz
Compression mode : Lossy
Stream size : 121 MiB (9%)
Alignment : Aligned on interleaves
Interleave, duration : 40 ms (1.00 video frame)
Interleave, preload duration : 504 ms



Скачать Шерлок.Шерлок.Холмс.Sherlock.(сезоны.01-02).(Пол.Макгиган).[2010-2012.детектив.SATRip].[Первый.канал].torrent без регистрации
Золото ЗОЛОТАЯ РАЗДАЧА! СКАЧАННОЕ НЕ ЗАСЧИТЫВАЕТСЯ! Золото
Дата: Зарегистрирован   [ Тип: внутренний ] Как тут cкачать?
MAGNET ссылка
MAGNET ссылка


Скачать .torrent

42 KB

Статус: проверено DHT
Скачан: торрент - 566 раз, раздача полностью - 1535 раз
Размер: 8,21 GB
Оценка:  4,6 (Голосов: 5)
Поблагодарили: 8
Поделиться ссылкой на эту раздачу с друзьями:
В контактеFacebookОдноклассникиTwitterLivejournalМой МирLiveinternet
 

 

rebornweb

[] 

концовка просто убила, так испортить сериал an
 
Показать сообщения:    


Вы не можете начинать темы
Вы не можете отвечать на сообщения
Вы не можете редактировать свои сообщения
Вы не можете удалять свои сообщения
Вы не можете голосовать в опросах
Вы не можете прикреплять файлы к сообщениям
Вы можете скачивать файлы