Loading...
Error

Скачать Игра престолов / Game of Thrones (Полный 3-ий сезон) (Дэн Майнахан, Дэвид Наттер) [2013, фэнтези, драма, приключения, HDTVRip] [720p] [SUB] (RUS) торрент без регистрации

 
Статистика раздачи
Размер:  13,5 GB   |    Скачан:  192 раза
Сидов:  1  [  0 KB/s  ]  
 
Автор Сообщение

leon030982

[] 

Игра престолов / Game of Thrones (Сезон 03, серия 01-10 из 10)


Год выхода: 2013
Жанр: фэнтези, драма, приключения
Страна: США, Великобритания
Студия: Home Box Office (HBO)
Продолжительность: ~00:56:00
Перевод: Субтитры

Режиссер:

В ролях: Лена Хиди, Николай Костер-Валдау, Питер Динклейдж, Йен Глен, Эмилия Кларк, Кит Харингтон, Стивен Диллэйн, Лиам Каннингем, Кэрис ван Хаутен, Натали Дормер, Гвендолин Кристи, Ханна Мюррей

О фильме: Люди, отказавшиеся жить по законам Семи Королевств, получили название одичалых и были изгнаны за Стену, на страже которой стоит Ночной Дозор. Но орден был учрежден, чтобы защищать мир людей от совсем другой силы Белых Ходоков, ныне пробудившихся и угрожающих всему живому. Король одичалых Манс готов на все, чтобы убедить Дозор пропустить свой народ за Стену.
Однако южные лорды и короли как и прежде глухи к сообщениям о скорой зиме, о пробуждении Иных и о вторжении одичалых. Король Станнис Баратеон скрылся после поражения на Черноводной в своем замке, король Бейлон Грейджой разоряет побережье, король Робб теряет союзников, а король Джоффри, напротив, имея в союзниках два самых влиятельных дома Королевств, надеется вскоре разбить всех своих врагов. Третий сезон Игры престолов поставлен по первой половине третьего тома Песни Льда и Пламени (Буря мечей).


Официальный сайт

Качество: HDTVRip 720
Кодек: H.264
Видео: 1280x720 (16:9), 23.976 fps, ~2850 kbps, 0.147 bit/pixel
Звук: 48 kHz, AC3, 2 ch, ~384.00 kbps avg
Субтитры: есть
Общее
Полное имя : C:UsersAmberDesktopGame.of.Thrones.Season.3.720pEng.subsGame.of.Thrones.S03E01.720p.eng.srt
Формат : SubRip
Размер файла : 55,2 Кбайт

Текст
Формат : SubRip
Метод сжатия : Без потерь

Общее
Уникальный идентификатор : 107894718670705592876171537129678250319 (0x512BC45706B6D81C79B11DDAFD73214F)
Полное имя : C:UsersAmberDesktopGame.of.Thrones.Season.3.720pGame.of.Thrones.S03E01.720p.mkv
Формат : Matroska
Версия формата : Version 4 / Version 2
Размер файла : 1,30 Гбайт
Продолжительность : 56 м.
Общий поток : 3300 Кбит/сек
Дата кодирования : UTC 2013-04-01 04:01:21
Программа кодирования : mkvmerge v6.0.0 ('Coming Up For Air') built on Jan 20 2013 10:28:01
Библиотека кодирования : libebml v1.3.0 + libmatroska v1.4.0

Видео
Идентификатор : 1
Формат : AVC
Формат/Информация : Advanced Video Codec
Профиль формата : High@L4.1
Параметр CABAC формата : Да
Параметр ReFrames формата : 5 кадров
Идентификатор кодека : V_MPEG4/ISO/AVC
Продолжительность : 56 м.
Битрейт : 2850 Кбит/сек
Ширина : 1280 пикселей
Высота : 720 пикселей
Соотношение сторон : 16:9
Режим частоты кадров : Постоянный
Частота кадров : 23,976 кадра/сек
Цветовое пространство : YUV
Субдискретизация насыщенности : 4:2:0
Битовая глубина : 8 бит
Тип развёртки : Прогрессивная
Бит/(Пиксели*Кадры) : 0.129
Размер потока : 1,12 Гбайт (86%)
Библиотека кодирования : x264 core 130 r2273 b3065e6
Настройки программы : cabac=1 / ref=5 / deblock=1:0:0 / analyse=0x3:0x113 / me=umh / subme=8 / psy=1 / psy_rd=1.00:0.00 / mixed_ref=1 / me_range=16 / chroma_me=1 / trellis=1 / 8x8dct=1 / cqm=0 / deadzone=21,11 / fast_pskip=1 / chroma_qp_offset=-2 / threads=18 / lookahead_threads=3 / sliced_threads=0 / nr=0 / decimate=1 / interlaced=0 / bluray_compat=0 / constrained_intra=0 / bframes=3 / b_pyramid=2 / b_adapt=2 / b_bias=0 / direct=3 / weightb=1 / open_gop=0 / weightp=2 / keyint=250 / keyint_min=23 / scenecut=40 / intra_refresh=0 / rc_lookahead=50 / rc=crf / mbtree=1 / crf=18.0 / qcomp=0.60 / qpmin=0 / qpmax=69 / qpstep=4 / ip_ratio=1.40 / aq=1:1.00
Язык : English
Default : Да
Forced : Нет
Коэффициенты матрицы : BT.709

Аудио
Идентификатор : 2
Формат : AC-3
Формат/Информация : Audio Coding 3
Расширение режима : CM (complete main)
Параметр Endianness формата : Big
Идентификатор кодека : A_AC3
Продолжительность : 56 м.
Вид битрейта : Постоянный
Битрейт : 384 Кбит/сек
Каналы : 2 канала
Расположение каналов : Front: L R
Частота : 48,0 КГц
Битовая глубина : 16 бит
Метод сжатия : С потерями
Размер потока : 155 Мбайт (12%)
Default : Да
Forced : Нет

Общее
Полное имя : C:UsersAmberDesktopGame.of.Thrones.Season.3.720pGame.of.Thrones.S03E01.720p.srt
Формат : SubRip
Размер файла : 50,7 Кбайт

Текст
Формат : SubRip
Метод сжатия : Без потерь
Семпл
Раздача ведётся путём добавления новых серий; при каждом добавлении создаётся новый торрент. Чтобы начать докачку новой серии, пользователям необходимо сделать следующее:
(1) остановить скачивание,
(2) удалить старый торрент у себя из клиента (старые серии удалять не надо),
(3) скачать новый торрент и запустить его у себя в клиенте вместо старого, при этом указать клиенту путь в старую папку куда и должно происходить скачивание новых серий.

Ваш клиент при этом должен произвести хеширование (проверку) старой папки (если не производит сам - помогите ему сделать это), и будет докачивать только те серии которых у вас ещё нет. Старые серии при этом не удаляются, а продолжают раздаваться!

Eсли вы уже удалили старые серии, то предотвратить повторную закачку старых серий можно, отжав галочку в соответствующих местах при запуске нового торрента. По возможности, желательно не удалять старые серии как можно дольше чтобы релизёр не столько продолжал раздавать старые серии, а смог сконцентрироваться на новых.



Скачать Игра.престолов.Game.of.Thrones.(Полный.3-ий.сезон).(Дэн.Майнахан.Дэвид.Наттер).[2013.фэнтези.драма.приключения.HDTVRip].[720p].[SUB].(RUS).torrent без регистрации
Золото ЗОЛОТАЯ РАЗДАЧА! СКАЧАННОЕ НЕ ЗАСЧИТЫВАЕТСЯ! Золото
Дата: Зарегистрирован   [ Тип: внутренний ] Как тут cкачать?
MAGNET ссылка
MAGNET ссылка


Скачать .torrent

36 KB

Статус: проверено DHT
Скачан: торрент - 192 раз, раздача полностью - 12 раз
Размер: 13,5 GB
Оценка:  5 (Голосов: 1)
Поблагодарили: 3
Поделиться ссылкой на эту раздачу с друзьями:
В контактеFacebookОдноклассникиTwitterLivejournalМой МирLiveinternet
 

 

leon030982

[] 

2-я серия az
 

demon107

[] 

поддайте скорости...
 

leon030982

[] 

«Игра престолов» продлена. Официально az
Никто и не сомневался, но после официального объявления на душе стало как-то спокойней. Да, Game of Thrones («Игра престолов») продлена. Да, на четвертый сезон. Об этом во всеуслышание сообщил телеканал HBO всего через два дня после премьеры третьего.
 

leon030982

[] 

4-я серия az
 

leon030982

[] 

5-я серия ay
 

leon030982

[] 

обновлено az
 

leon030982

[] 

8-я серия az
 

leon030982

[] 

9-я серия ab
 

leon030982

[] 

добавлена финальная 10-я серия az сезон завершен az
 
Показать сообщения:    


Вы не можете начинать темы
Вы не можете отвечать на сообщения
Вы не можете редактировать свои сообщения
Вы не можете удалять свои сообщения
Вы не можете голосовать в опросах
Вы не можете прикреплять файлы к сообщениям
Вы можете скачивать файлы