Loading...
Error

Скачать Культ / Cult (Сезон 1, серии 01-12 из 13) (Натан Хоуп / Nathan Hope) [2013 г., триллер, WEB-DLRip] [MVO] (LostFilm) торрент без регистрации

 
Статистика раздачи
Размер:  5,85 GB   |    Скачан:  150 раз
Сидов:  1  [  0 KB/s  ]  
 
Автор Сообщение

leon030982

[] 


Культ / The Cult


Год выпуска: 2013

Страна: США
Жанр: фэнтези, драма, приключения, семейный
Продолжительность: ~ 00:44:00
Перевод: Профессиональный (многоголосый закадровый)[LostFilm]
Режиссер: Натан Хоуп / Nathan Hope
В ролях:
Мэтт Дэвис, Джессика Лукас, Алона Тал, Роберт Неппер, Мари Авгеропулос, Джеймс Пиццинато, Кристиан Майкл Купер, Джеффри Пирс, Аиша Хиндс, Кадим Хардисон
Описание:
Мистический сериал рассказывает о ряде таинственных событий, в результате которых исчезли люди. Молодая помощница продюсера в тандеме с блоггером-журналистом начинают вести расследование среди группы ярых фанатиков, которые осуществляют убийства из телешоу.
Качество: WEB-DLRip
Формат: AVI
Видео кодек: XviD
Аудио кодек: MP3
Видео: 720x400 (16/9), 23.976 fps, 1350 Kbps (0.19 bit/pixel)
Аудио RUS: 48 kHz, MPEG Layer 3, 2 ch, ~128 kbps
Аудио ENG: 48 kHz, MPEG Layer 3, 2 ch, ~128 kbps
Релиз:
Озвучка: Студия "LostFilm"
Рип: Мосенька

| Сэмпл

Общее
Полное имя : I:\Культ (Сезон 1) LostFilm\Cult.s01e01.WEB-DLRip.LostFilm.avi
Формат : AVI
Формат/Информация : Audio Video Interleave
Размер файла : 500 Мбайт
Продолжительность : 42 м.
Общий поток : 1646 Кбит/сек
Программа кодирования : VirtualDubMod 1.5.10.3 | www.virtualdub-fr.org || (build 2550/release)
Библиотека кодирования : VirtualDubMod build 2550/release
Видео
Идентификатор : 0
Формат : MPEG-4 Visual
Профиль формата : Advanced Simple@L5
Параметр BVOP формата : 1
Параметр QPel формата : Нет
Параметр GMC формата : Без точки перехода
Параметр матрицы формата : Выборочная
Идентификатор кодека : XVID
Идентификатор кодека/Подсказка : XviD
Продолжительность : 42 м.
Битрейт : 1376 Кбит/сек
Ширина : 720 пикселей
Высота : 400 пикселей
Соотношение сторон : 16:9
Частота кадров : 23,976 кадра/сек
Цветовое пространство : YUV
Субдискретизация насыщенности : 4:2:0
Битовая глубина : 8 бит
Тип развёртки : Прогрессивная
Метод сжатия : С потерями
Бит/(Пиксели*Кадры) : 0.199
Размер потока : 418 Мбайт (84%)
Библиотека кодирования : XviD 63
Аудио #1
Идентификатор : 1
Формат : MPEG Audio
Версия формата : Version 1
Профиль формата : Layer 3
Режим : Joint stereo
Расширение режима : MS Stereo
Идентификатор кодека : 55
Идентификатор кодека/Подсказка : MP3
Продолжительность : 42 м.
Вид битрейта : Постоянный
Битрейт : 128 Кбит/сек
Каналы : 2 канала
Частота : 48,0 КГц
Метод сжатия : С потерями
Размер потока : 38,9 Мбайт (8%)
Выравнивание : Соединение по промежуткам
Продолжительность промежутка : 42 мс. (1,00 видеокадр)
Время предзагрузки промежутка : 504 мс.
Аудио #2
Идентификатор : 2
Формат : MPEG Audio
Версия формата : Version 1
Профиль формата : Layer 3
Режим : Joint stereo
Расширение режима : MS Stereo
Идентификатор кодека : 55
Идентификатор кодека/Подсказка : MP3
Продолжительность : 42 м.
Вид битрейта : Постоянный
Битрейт : 128 Кбит/сек
Каналы : 2 канала
Частота : 48,0 КГц
Метод сжатия : С потерями
Размер потока : 38,9 Мбайт (8%)
Выравнивание : Соединение по промежуткам
Продолжительность промежутка : 42 мс. (1,00 видеокадр)
Время предзагрузки промежутка : 504 мс.
Внимание! Раздача ведётся путём добавления новых серий; при каждом добавлении создаётся новый торрент-файл. Чтобы начать дозакачку новой серии, пользователям необходимо сделать следующее:
(1) остановить скачивание,
(2) удалить старый торрент-файл у себя из клиента (старые серии удалять не надо),
(3) скачать новый торрент-файл и запустить его у себя в клиенте вместо старого, при этом указать клиенту путь в старую папку куда и должно происходить скачивание новых серий.
Ваш клиент при этом должен произвести хеширование (проверку) старой папки (если не производит сам - помогите ему сделать это), и будет докачивать только те серии которых у вас ещё нет. Старые серии при этом не удаляются, а продолжают раздаваться!
Eсли вы уже удалили старые серии, то предотвратить повторную закачку старых серий можно, отжав галочку в соответствующих местах при запуске нового торрента.



Скачать Культ.Cult.(Сезон.1.серии.01-12.из.13).(Натан.Хоуп.Nathan.Hope).[2013.г.триллер.WEB-DLRip].[MVO].(LostFilm).torrent без регистрации
Золото ЗОЛОТАЯ РАЗДАЧА! СКАЧАННОЕ НЕ ЗАСЧИТЫВАЕТСЯ! Золото
Дата: Зарегистрирован   [ Тип: внутренний ] Как тут cкачать?
MAGNET ссылка
MAGNET ссылка


Скачать .torrent

16 KB

Статус: проверено DHT
Скачан: торрент - 150 раз, раздача полностью - 1 раз
Размер: 5,85 GB
Оценка:  - (Голосов: 0)
Поблагодарили: 3
Поделиться ссылкой на эту раздачу с друзьями:
В контактеFacebookОдноклассникиTwitterLivejournalМой МирLiveinternet
 

 

leon030982

[] 

добавлена 2-я серия az az
 

leon030982

[] 

3-я серия az
 

leon030982

[] 

4-я серия az
 

leon030982

[] 

5-6-я серии az
 

leon030982

[] 

7-я серия az
 

leon030982

[] 

8-я серия az
 

leon030982

[] 

Цитата:

Обновлено
 
Показать сообщения:    


Вы не можете начинать темы
Вы не можете отвечать на сообщения
Вы не можете редактировать свои сообщения
Вы не можете удалять свои сообщения
Вы не можете голосовать в опросах
Вы не можете прикреплять файлы к сообщениям
Вы можете скачивать файлы