Loading...
Error

/ The Borgias ( 2 ) ( , , ) [2012, , , , HDTVRip] [720p] [LostFilm] + [Original] + [Rus Sub]

 
17,61 GB   |    :  201
1  [  0 KB/s  ]  
 

leon030982

[] 

/ The Borgias
: 2012
: , ,
: , ,
: ~50.
: , LostFilm
:
: loandbehold, vipere, wonderwood
: ,
: , ,
: , , , , , , , , ,

: XV : , . . 1492 , VIII, VI ( ), ...



: http://multi-up.com/687063
: HDTVRip 720p
: MKV
: H.264
: AC3
: The Borgias S02 ShoHD On Demand 1080i DD5.1-ALANiS
: 1280x720 at 23.976 fps, x264@L4.1, crf 18, ~5000 kbps avg, 0.22 bit/pixel
#1: : 48 kHz, AC3, 3/2 (L,C,R,l,r) + LFE ch, ~384.00 kbps avg | , LostFilm|
#2: : 48 kHz, AC3, 3/2 (L,C,R,l,r) + LFE ch, ~384.00 kbps avg
: ,
1. The Borgia Bull /
2. Paolo /

:

General
Complete name : The.Borgias.S02E01.720p.HDTVRip.Rus.Eng.HDCLUB.mkv
Format : Matroska
Format version : Version 2
File size : 2.21 GiB
Duration : 53mn 34s
Overall bit rate : 5 903 Kbps
Movie name : The Borgias [Season 2] (2012) - Release for HDCLUB
Encoded date : UTC 2012-04-15 15:51:09
Writing application : mkvmerge v5.5.0 ('Healer') built on Apr 6 2012 21:43:24
Writing library : libebml v1.2.3 + libmatroska v1.3.0
Video
ID : 1
Format : AVC
Format/Info : Advanced Video Codec
Format profile : High@L4.1
Format settings, CABAC : Yes
Format settings, ReFrames : 9 frames
Codec ID : V_MPEG4/ISO/AVC
Duration : 53mn 34s
Bit rate : 5 017 Kbps
Width : 1 280 pixels
Height : 720 pixels
Display aspect ratio : 16:9
Frame rate : 23.976 fps
Color space : YUV
Chroma subsampling : 4:2:0
Bit depth : 8 bits
Scan type : Progressive
Bits/(Pixel*Frame) : 0.227
Stream size : 1.88 GiB (85%)
Title : The Borgias S02E01: The Borgia Bull / - Release for HDCLUB
Writing library : x264 core 122 r2184 5c85e0a
Encoding settings : cabac=1 / ref=9 / deblock=1:-3:-3 / analyse=0x3:0x113 / me=umh / subme=10 / psy=1 / psy_rd=1.10:0.10 / mixed_ref=1 / me_range=32 / chroma_me=1 / trellis=2 / 8x8dct=1 / cqm=0 / deadzone=21,11 / fast_pskip=0 / chroma_qp_offset=-3 / threads=12 / sliced_threads=0 / nr=0 / decimate=0 / interlaced=0 / bluray_compat=0 / constrained_intra=0 / bframes=9 / b_pyramid=2 / b_adapt=2 / b_bias=0 / direct=3 / weightb=1 / open_gop=0 / weightp=2 / keyint=240 / keyint_min=23 / scenecut=40 / intra_refresh=0 / rc=crf / mbtree=0 / crf=18.0 / qcomp=0.80 / qpmin=0 / qpmax=69 / qpstep=4 / ip_ratio=1.40 / pb_ratio=1.30 / aq=2:0.60
Language : English
Default : Yes
Forced : No
Audio #1
ID : 2
Format : AC-3
Format/Info : Audio Coding 3
Mode extension : CM (complete main)
Codec ID : A_AC3
Duration : 53mn 34s
Bit rate mode : Constant
Bit rate : 384 Kbps
Channel(s) : 6 channels
Channel positions : Front: L C R, Side: L R, LFE
Sampling rate : 48.0 KHz
Bit depth : 16 bits
Compression mode : Lossy
Stream size : 147 MiB (7%)
Language : Russian
Default : Yes
Forced : No
Audio #2
ID : 3
Format : AC-3
Format/Info : Audio Coding 3
Mode extension : CM (complete main)
Codec ID : A_AC3
Duration : 53mn 34s
Bit rate mode : Constant
Bit rate : 384 Kbps
Channel(s) : 6 channels
Channel positions : Front: L C R, Side: L R, LFE
Sampling rate : 48.0 KHz
Bit depth : 16 bits
Compression mode : Lossy
Stream size : 147 MiB (7%)
Language : English
Default : No
Forced : No
Text #1
ID : 4
Format : UTF-8
Codec ID : S_TEXT/UTF8
Codec ID/Info : UTF-8 Plain Text
Language : Russian
Default : No
Forced : No
Text #2
ID : 5
Format : UTF-8
Codec ID : S_TEXT/UTF8
Codec ID/Info : UTF-8 Plain Text
Language : English
Default : No
Forced : No



.The.Borgias.(.2.).(......).[2012....HDTVRip].[720p].[LostFilm].+.[Original].+.[Rus.Sub].torrent
  ! ! 
:   [ : ] c?
MAGNET
MAGNET


.torrent

89 KB

: DHT
: - 201 , - 67
: 17,61 GB
- (: 0)
: 3
:
 FacebookTwitterLivejournal Liveinternet
 

 
: