Loading...
Error

Скачать Тарас Бульба (Владимир Бортко) [2009 г., Историческая драма, BDRip - AVC] торрент без регистрации

 
Статистика раздачи
Размер:  2,66 GB   |    Скачан:  170 раз
Сидов:  1  [  0 KB/s  ]  
 
Автор Сообщение

and77200

[] 


«От любви до ненависти»

Год выпуска: 2009
Страна: Россия, Украина, Польша
Жанр: боевик, драма, военный, история
Продолжительность: 02:11:16
Перевод: Оригинал
Режиссер: Владимир Бортко

В ролях: Богдан Ступка (Тарас Бульба), Игорь Петренко (Андрий), Владимир Вдовиченков (Остап), Магдалена Мельцаж (Эльжбета), Любомирас Лауцявичюс (Мазовецкий), Ада Роговцева (жена Тараса), Михаил Боярский (Мосий Шило), Сергей Дрейден (Янкель), Юрий Беляев (Кирдяга), Лесь Сердюк (Товкач), Владимир Ильин (Кошевой), Борис Хмельницкий (Бородатый)
Описание: По мотивам одной из самых известных повестей Николая Гоголя «Тарас Бульба». События «Запорожской сечи» отсылают к тяжелому периоду в истории казачества, когда запорожцы поднялись на борьбу с Речью Посполитой.
В самом центре политических интриг оказалась семья уважаемого казака Тараса Бульбы, переживающего глубокую личную драму. Его сын Андрий полюбил польскую аристократку и хочет бежать из Сечи. Раздираемый чувством и долгом Тарас объявляет сыну последнюю родительскую волю...


Качество: BDRip
Контейнер: MKV
Видео кодек: AVC
Аудио кодек: AC3

Видео: AVC, 1024x432 (2.35:1), 2550 kbps, 23,976 fps, 0,240 bpp
Аудио: русский / AC3 / 5.1 / 48 kHz / 384 kbps / 16 bit
Рип: and77200




General
Complete name : E:\торрент\Тарас Бульба (2009)BDRip - AVC.mkv
Format : Matroska
File size : 2.66 GiB
Duration : 2h 11mn
Overall bit rate : 2 904 Kbps
Movie name : Тарас Бульба (2009) BDRip 1080p от Dimok
Encoded date : UTC 2010-02-22 21:41:29
Writing application : XviD4PSP 6.0 / 54.3.100
Writing library : XviD4PSP 6.0 / 54.3.100

Video
ID : 1
Format : AVC
Format/Info : Advanced Video Codec
Format profile : High@L4.1
Format settings, CABAC : Yes
Format settings, ReFrames : 4 frames
Muxing mode : Container profile=Unknown@4.1
Codec ID : V_MPEG4/ISO/AVC
Duration : 2h 11mn
Bit rate : 2 463 Kbps
Nominal bit rate : 2 550 Kbps
Width : 1 024 pixels
Height : 432 pixels
Display aspect ratio : 2.35:1
Original display aspect ratio : 2.35:1
Frame rate mode : Variable
Frame rate : 23.976 fps
Resolution : 24 bits
Colorimetry : 4:2:0
Scan type : Progressive
Bits/(Pixel*Frame) : 0.232
Stream size : 2.26 GiB (85%)
Writing library : x264 core 124 r2197M 69a0443
Encoding settings : cabac=1 / ref=5 / deblock=1:0:0 / analyse=0x3:0x133 / me=umh / subme=9 / psy=1 / psy_rd=1.00:0.20 / mixed_ref=1 / me_range=16 / chroma_me=1 / trellis=0 / 8x8dct=1 / cqm=0 / deadzone=21,11 / fast_pskip=1 / chroma_qp_offset=-2 / threads=2 / sliced_threads=0 / nr=0 / decimate=1 / interlaced=0 / bluray_compat=0 / constrained_intra=0 / bframes=5 / b_pyramid=1 / b_adapt=0 / b_bias=0 / direct=3 / weightb=1 / open_gop=0 / weightp=0 / keyint=230 / keyint_min=23 / scenecut=40 / intra_refresh=0 / rc_lookahead=40 / rc=abr / mbtree=1 / bitrate=2550 / ratetol=1.0 / qcomp=0.60 / qpmin=10 / qpmax=51 / qpstep=4 / ip_ratio=1.40 / aq=1:1.00
Language : English

Audio
ID : 2
Format : AC-3
Format/Info : Audio Coding 3
Codec ID : A_AC3
Duration : 2h 11mn
Bit rate mode : Constant
Bit rate : 384 Kbps
Channel(s) : 6 channels
Channel positions : Front: L C R, Surround: L R, LFE
Sampling rate : 48.0 KHz
Resolution : 16 bits
Stream size : 361 MiB (13%)
Title :
Language : Russian
Оформление by and77200



Скачать Тарас.Бульба.(Владимир.Бортко).[2009.г.Историческая.драма.BDRip.-.AVC].torrent без регистрации
Золото ЗОЛОТАЯ РАЗДАЧА! СКАЧАННОЕ НЕ ЗАСЧИТЫВАЕТСЯ! Золото
Дата: Зарегистрирован   [ Тип: внутренний ] Как тут cкачать?
MAGNET ссылка
MAGNET ссылка


Скачать .torrent

107 KB

Статус: проверено DHT
Скачан: торрент - 170 раз, раздача полностью - 13 раз
Размер: 2,66 GB
Оценка:  - (Голосов: 0)
Поблагодарили: 5
Поделиться ссылкой на эту раздачу с друзьями:
В контактеFacebookОдноклассникиTwitterLivejournalМой МирLiveinternet
 

 
Показать сообщения:    


Вы не можете начинать темы
Вы не можете отвечать на сообщения
Вы не можете редактировать свои сообщения
Вы не можете удалять свои сообщения
Вы не можете голосовать в опросах
Вы не можете прикреплять файлы к сообщениям
Вы можете скачивать файлы