Loading...
Error

Скачать Лиллехаммер / Lilyhammer (Полный 1-ый сезон ) (Simen Alsvik) [2012 г., комедия, драма, криминальный, HDRip] [AVO] (Ю. Сербин) торрент без регистрации

 
Статистика раздачи
Размер:  8,06 GB   |    Скачан:  483 раза
Сидов:  1  [  0 KB/s  ]  
 
Автор Сообщение

leon030982

[] 

Лиллехаммер - Первый сезон
Lilyhammer - One Season
Год выхода в эфир: 2012
Страна: Норвегия
Жанр: комедия, драма, криминальный
Продолжительность: ~ 00:45:00
Перевод: Авторский (одноголосый, закадровый) |Ю. Сербин|
Субтитры: есть (Norwegian)
Режиссер: Simen Alsvik
В ролях: Steve Van Zandt, Trond Fausa Aurvaag, Marian Saastad Ottesen, Steinar Sagen, Sven Nordin, Anne Krigsvoll, Fridtjov Såheim, Mikael Aksnes-Pehrson и др.
Описание: Тальяно сдал своего босса федералам, и теперь, в рамках программы по защите свидетелей, он переезжает в Лиллехаммер, небольшой норвежский городок, когда-то приютивший зимние олимпийские игры. Сам Фрэнк называет его Лилихэммером, отсюда и название сериала. Фрэнк мечтает о рае с «чистым воздухом, белым снегом и клевыми телками», вдали от соблазнов Нью-Йорка и от карателей мафии. Реальность, конечно же, оказывается не такой, как мечты.


Качество: HDRip
Формат: AVI [sample]
Видео кодек: XviD
Аудио кодек: AC3
Видео: 720*400 (1.80), 25 fps, XviD MPEG-4, ~2270 kbps, 0.315 bit/pixel
Аудио #1: 48 kHz, AC3 Dolby Digital, 3/2 (L,C,R,l,r) + LFE ch, ~448 kbps avg |Ю. Сербин|
Аудио #2: 48 kHz, AC3 Dolby Digital, 3/2 (L,C,R,l,r) + LFE ch, ~448 kbps avg |Original|
Размер: 2xDVD5 / по 4 серии на 1xDVD5
Рип: svm-mfs

ВНИМАНИЕ! В сериале присутствует большое количество ненормативной лексики.[/spoiler]




General
Complete name : E:\_О.Б.Р.А.Б.О.Т.К.А_\Lilyhammer - S1 - (Ю. Сербин)\Lilyhammer.S01E01.HDRip.XviD.AC3.-SVM.avi
Format : AVI
Format/Info : Audio Video Interleave
File size : 1.00 GiB
Duration : 45mn 11s
Overall bit rate : 3 177 Kbps
Writing application : VirtualDubMod 1.5.10.2 (build 2540/release)
Writing library : VirtualDubMod build 2540/release
Video #0
ID : 0
Format : MPEG-4 Visual
Format profile : Advanced Simple@L5
Format settings, BVOP : 2
Format settings, QPel : No
Format settings, GMC : No warppoints
Format settings, Matrix : Custom
Codec ID : XVID
Codec ID/Hint : XviD
Duration : 45mn 11s
Bit rate : 2 266 Kbps
Width : 720 pixels
Height : 400 pixels
Display aspect ratio : 16:9
Frame rate : 25.000 fps
Color space : YUV
Chroma subsampling : 4:2:0
Bit depth : 8 bits
Scan type : Progressive
Compression mode : Lossy
Bits/(Pixel*Frame) : 0.315
Stream size : 733 MiB (71%)
Writing library : XviD 1.2.1 (UTC 2008-12-04)
Audio #1
ID : 1
Format : AC-3
Format/Info : Audio Coding 3
Mode extension : CM (complete main)
Codec ID : 2000
Duration : 45mn 11s
Bit rate mode : Constant
Bit rate : 448 Kbps
Channel(s) : 2 channels
Channel positions : Front: L R
Sampling rate : 48.0 KHz
Bit depth : 16 bits
Compression mode : Lossy
Stream size : 145 MiB (14%)
Alignment : Aligned on interleaves
Interleave, duration : 40 ms (1.00 video frame)
Interleave, preload duration : 512 ms
Audio #2
ID : 2
Format : AC-3
Format/Info : Audio Coding 3
Mode extension : CM (complete main)
Codec ID : 2000
Duration : 45mn 11s
Bit rate mode : Constant
Bit rate : 448 Kbps
Channel(s) : 6 channels
Channel positions : Front: L C R, Side: L R, LFE
Sampling rate : 48.0 KHz
Bit depth : 16 bits
Compression mode : Lossy
Stream size : 145 MiB (14%)
Alignment : Split accross interleaves
Interleave, duration : 40 ms (1.00 video frame)
Interleave, preload duration : 500 ms



- Огромное СПАСИБО за спонсирование сериала:
markin555, carefree69, HPotter, masha382, sashasushko, Loki1982, Zeitroid, welovedoit, 48ronin, Konerld, bolgarin, iRambo, Telperion, lostone, kalmykovkww, AZGARD66, Muma, Alex314, zeleniydzhan, usacha, andreylis, bearrrrrr, 771, Parasiteis, tonST7.





Скачать Лиллехаммер.Lilyhammer.(Полный.1-ый.сезон.).(Simen.Alsvik).[2012.г.комедия.драма.криминальный.HDRip].[AVO].(Ю.Сербин).torrent без регистрации
Золото ЗОЛОТАЯ РАЗДАЧА! СКАЧАННОЕ НЕ ЗАСЧИТЫВАЕТСЯ! Золото
Дата: Зарегистрирован   [ Тип: внутренний ] Как тут cкачать?
MAGNET ссылка
MAGNET ссылка


Скачать .torrent

42 KB

Статус: проверено DHT
Скачан: торрент - 483 раз, раздача полностью - 414 раз
Размер: 8,06 GB
Оценка:  5 (Голосов: 1)
Поблагодарили: 6
Поделиться ссылкой на эту раздачу с друзьями:
В контактеFacebookОдноклассникиTwitterLivejournalМой МирLiveinternet
 

 

leon030982

[] 

отличный фильм ab
 

leon030982

[] 

Второй сезон сейчас снимают съёмки закончат в апреле и покажут его в течении 2013 года.
Сам Стивен говорит что и 3 и 4 сезон вроде бы в проекте! Но а пока что команда усердно работают над съёмкой второго сезона .
 

leon030982

[] 

трейлер ко второму сезону ab
Ссылка YouTube
 
Показать сообщения:    


Вы не можете начинать темы
Вы не можете отвечать на сообщения
Вы не можете редактировать свои сообщения
Вы не можете удалять свои сообщения
Вы не можете голосовать в опросах
Вы не можете прикреплять файлы к сообщениям
Вы можете скачивать файлы