Loading...
Error

Скачать Когда пробьет 8 склянок / When Eight Bells Toll (Этьен Перье / Etienne Perier) [1971 г., боевик, криминал, детектив, приключения, DVDRip-AVC] [MVO] торрент без регистрации

 
Статистика раздачи
Размер:  1,46 GB   |    Скачан:  197 раз

Полного источника не было: 22 минуты

 
Автор Сообщение

leon030982

[] 

Когда пробьет 8 склянок / When Eight Bells Toll
Страна: Великобритания
Жанр: боевик, криминал, детектив, приключения
Год выпуска: 1971
Продолжительность: 01:30:09
Перевод: Профессиональный (многоголосый закадровый)
Cубтитры: английские
Оригинальная аудиодорожка: английский
Режиссер: Этьен Перье
Сценарий: Алистер МакЛин
В ролях: Энтони Хопкинс, Роберт Морли, Натали Делон, Джек Хоукинс, Корин Редгрейв, Дерек Бонд, Ферди Мэйн, Морис Роевз, Леон Коллинз, Венди Элнатт
Описание: Герой Хопкинса - спецагент по заданиям высшей категории сложности. Его зовут Калверт. Филип Калверт. Героя придумал Алистер Маклин, один из самых популярных писателей приключенческой литературы ("Пушки острова Наварон", "Орлиное гнездо"), поэтому скучать точно не придется: захватывающий сюжет, красивые северные пейзажи плюс образцовый английский юмор. У побережья Шотландии бесследно исчез корабль с золотыми слитками на борту. Единственная надежда сбившихся с ног спецслужб - агент Калверт, который любит экстрим, никогда не теряет бдительности (даже рядом с роковыми женщинами), в огне не горит, и в воде не тонет.

Исходник: , спасибо dima358
Качество видео: DVDRip-AVC | | sample
Формат видео: MKV
Видео кодек: x264
Видео: AVC 696x434@990x434 (2.25:1), 25 fps, ~1925 Kbps, 0.25 bit/pixel
Аудио #1: Russian AC3 2ch 48kHz 192Kbps | MVO
Аудио #2: English AC3 2ch 48kHz 192Kbps | Original
Формат субтитров: softsub (SRT)
Главы: есть
--[NoImage] raw [info]: 696x434p 34720:30537 @ 25/1 fps (cfr)
--[NoImage] x264 [info]: using SAR=34720/30537
--[NoImage] x264 [info]: using cpu capabilities: MMX2 SSE2Fast FastShuffle SSEMisalign LZCNT
--[NoImage] x264 [info]: profile High, level 4.1
--[NoImage] x264 [info]: cabac=1 ref=12 deblock=1:-2:-1 analyse=0x3:0x133 me=umh subme=11 psy=1 fade_compensate=0.00 psy_rd=1.20:0.10 mixed_ref=1 me_range=48 chroma_me=1 trellis=2 8x8dct=1 cqm=0 deadzone=21,11 fast_pskip=0 chroma_qp_offset=-4 threads=6 sliced_threads=0 nr=0 decimate=0 interlaced=0 bluray_compat=0 constrained_intra=0 bframes=10 b_pyramid=2 b_adapt=2 b_bias=0 direct=3 weightb=1 open_gop=0 weightp=2 keyint=250 keyint_min=25 scenecut=40 intra_refresh=0 rc_lookahead=40 rc=2pass mbtree=0 bitrate=1925 ratetol=1.0 qcomp=0.70 qpmin=0 qpmax=69 qpstep=4 cplxblur=20.0 qblur=0.5 vbv_maxrate=17500 vbv_bufsize=14000 nal_hrd=none ip_ratio=1.40 pb_ratio=1.30 aq=1:1.00
--[NoImage] x264 [info]: started at Sat Jan 14 20:26:10 2012
--[NoImage]
--[NoImage] x264 [info]: frame I:993 Avg QP:16.88 size: 46367
--[NoImage] x264 [info]: frame P:27049 Avg QP:20.30 size: 16637
--[NoImage] x264 [info]: frame B:107183 Avg QP:21.55 size: 7513
--[NoImage] x264 [info]: consecutive B-frames: 1.1% 1.0% 4.9% 21.9% 18.7% 39.9% 7.6% 2.7% 1.3% 0.6% 0.3%
--[NoImage] x264 [info]: mb I I16..4: 6.9% 60.1% 33.0%
--[NoImage] x264 [info]: mb P I16..4: 1.0% 12.2% 3.3% P16..4: 32.6% 37.4% 9.4% 2.9% 0.2% skip: 0.9%
--[NoImage] x264 [info]: mb B I16..4: 0.1% 1.5% 0.6% B16..8: 35.4% 21.4% 3.5% direct:11.5% skip:25.9% L0:40.3% L1:43.1% BI:16.6%
--[NoImage] x264 [info]: 8x8 transform intra:70.7% inter:48.6%
--[NoImage] x264 [info]: direct mvs spatial:99.6% temporal:0.4%
--[NoImage] x264 [info]: coded y,uvDC,uvAC intra: 89.2% 80.0% 50.9% inter: 37.3% 26.3% 6.5%
--[NoImage] x264 [info]: i16 v,h,dc,p: 31% 19% 9% 41%
--[NoImage] x264 [info]: i8 v,h,dc,ddl,ddr,vr,hd,vl,hu: 13% 10% 7% 8% 13% 11% 14% 10% 14%
--[NoImage] x264 [info]: i4 v,h,dc,ddl,ddr,vr,hd,vl,hu: 26% 9% 5% 7% 10% 10% 13% 9% 12%
--[NoImage] x264 [info]: i8c dc,h,v,p: 36% 27% 23% 14%
--[NoImage] x264 [info]: Weighted P-Frames: Y:17.7% UV:3.7%
--[NoImage] x264 [info]: ref P L0: 43.4% 9.2% 16.4% 7.8% 5.9% 4.7% 3.9% 2.3% 1.9% 1.6% 1.4% 1.2% 0.2% 0.0%
--[NoImage] x264 [info]: ref B L0: 74.2% 13.3% 4.8% 2.4% 1.6% 1.3% 1.0% 0.6% 0.5% 0.3% 0.1%
--[NoImage] x264 [info]: ref B L1: 94.3% 5.7%
--[NoImage] x264 [info]: kb/s:1924.63
--[NoImage] encoded 135225 frames, 6.09 fps, 1924.63 kb/s
General
Complete name : E:\...\When.Eight.Bells.Toll.1971.PAL.DVDRip.x264.AC3.Rus.Eng-tRuAVC.mkv
Format : Matroska
Format version : Version 2
File size : 1.46 GiB
Duration : 1h 30mn
Overall bit rate : 2 311 Kbps
Movie name : When.Eight.Bells.Toll.1971.PAL.DVDRip.x264.AC3.Rus.Eng-tRuAVC
Encoded date : UTC 2012-01-15 08:21:58
Writing application : mkvmerge v5.2.1 ('A Far Off Place') built on Jan 2 2012 23:21:10
Writing library : libebml v1.2.3 + libmatroska v1.3.0
Video
ID : 1
Format : AVC
Format/Info : Advanced Video Codec
Format profile : High@L4.1
Format settings, CABAC : Yes
Format settings, ReFrames : 12 frames
Codec ID : V_MPEG4/ISO/AVC
Duration : 1h 30mn
Bit rate : 1 925 Kbps
Width : 696 pixels
Height : 434 pixels
Display aspect ratio : 2.25:1
Original display aspect ratio : 16:9
Frame rate : 25.000 fps
Color space : YUV
Chroma subsampling : 4:2:0
Bit depth : 8 bits
Scan type : Progressive
Bits/(Pixel*Frame) : 0.255
Stream size : 1.18 GiB (81%)
Title : Encode by Enclave76@tRuAVC for rutracker.org
Writing library : x264 core 120 r2120kMod 0c7dab9
Encoding settings : cabac=1 / ref=12 / deblock=1:-2:-1 / analyse=0x3:0x133 / me=umh / subme=11 / psy=1 / fade_compensate=0.00 / psy_rd=1.20:0.10 / mixed_ref=1 / me_range=48 / chroma_me=1 / trellis=2 / 8x8dct=1 / cqm=0 / deadzone=21,11 / fast_pskip=0 / chroma_qp_offset=-4 / threads=6 / sliced_threads=0 / nr=0 / decimate=0 / interlaced=0 / bluray_compat=0 / constrained_intra=0 / bframes=10 / b_pyramid=2 / b_adapt=2 / b_bias=0 / direct=3 / weightb=1 / open_gop=0 / weightp=2 / keyint=250 / keyint_min=25 / scenecut=40 / intra_refresh=0 / rc_lookahead=40 / rc=2pass / mbtree=0 / bitrate=1925 / ratetol=1.0 / qcomp=0.70 / qpmin=0 / qpmax=69 / qpstep=4 / cplxblur=20.0 / qblur=0.5 / vbv_maxrate=17500 / vbv_bufsize=14000 / nal_hrd=none / ip_ratio=1.40 / pb_ratio=1.30 / aq=1:1.00
Language : English
Matrix coefficients : BT.470-6 System B, BT.470-6 System G, BT.601-6 625, BT.1358 625, BT.1700 625 PAL, BT.1700 625 SECAM, IEC 61966-2-4 601
Audio #1
ID : 2
Format : AC-3
Format/Info : Audio Coding 3
Mode extension : CM (complete main)
Codec ID : A_AC3
Duration : 1h 30mn
Bit rate mode : Constant
Bit rate : 192 Kbps
Channel(s) : 2 channels
Channel positions : Front: L R
Sampling rate : 48.0 KHz
Bit depth : 16 bits
Compression mode : Lossy
Stream size : 124 MiB (8%)
Title : MVO
Language : Russian
Audio #2
ID : 3
Format : AC-3
Format/Info : Audio Coding 3
Mode extension : CM (complete main)
Codec ID : A_AC3
Duration : 1h 30mn
Bit rate mode : Constant
Bit rate : 192 Kbps
Channel(s) : 2 channels
Channel positions : Front: L R
Sampling rate : 48.0 KHz
Bit depth : 16 bits
Compression mode : Lossy
Stream size : 124 MiB (8%)
Title : Original
Language : English
Text
ID : 4
Format : UTF-8
Codec ID : S_TEXT/UTF8
Codec ID/Info : UTF-8 Plain Text
Language : English
Menu
00:00:00.000 : :Chapter 01
00:10:15.280 : :Chapter 02
...
01:27:48.720 : :Chapter 12



Скачать Когда.пробьет.8.склянок.When.Eight.Bells.Toll.(Этьен.Перье.Etienne.Perier).[1971.г.боевик.криминал.детектив.приключения.DVDRip-AVC].[MVO].torrent без регистрации
Золото ЗОЛОТАЯ РАЗДАЧА! СКАЧАННОЕ НЕ ЗАСЧИТЫВАЕТСЯ! Золото
Дата: Зарегистрирован   [ Тип: внутренний ] Как тут cкачать?
MAGNET ссылка
MAGNET ссылка


Скачать .torrent

15 KB

Статус: проверено DHT
Скачан: торрент - 197 раз, раздача полностью - 128 раз
Размер: 1,46 GB
Оценка:  - (Голосов: 0)
Поблагодарили: 2
Поделиться ссылкой на эту раздачу с друзьями:
В контактеFacebookОдноклассникиTwitterLivejournalМой МирLiveinternet
 

 
Показать сообщения:    


Вы не можете начинать темы
Вы не можете отвечать на сообщения
Вы не можете редактировать свои сообщения
Вы не можете удалять свои сообщения
Вы не можете голосовать в опросах
Вы не можете прикреплять файлы к сообщениям
Вы можете скачивать файлы