Loading...
Error

Скачать Игра престолов / Game of Thrones (сезон 02) (Алан Тейлор, Брайан Кирк, Даниэль Минахан) [2012, фэнтези, драма, приключения, HDTVRip] [720p] [LostFilm] торрент без регистрации

 
Статистика раздачи
Размер:  19,36 GB   |    Скачан:  923 раза

Полного источника не было: 29 минут

 
Автор Сообщение

МихаНЕзатор

[] 

Информация о фильме
Название: Игра престолов
Оригинальное название: Game of Thrones
Год выхода: 2012
Жанр: фэнтези, драма, приключения
Режиссер: Алан Тейлор, Брайан Кирк, Даниэль Минахан

В ролях: Питер Динклэйдж, Марк Эдди, Николай Костер-Валдау, Мишель Фэйрли, Лена Хиди, Эмилия Кларк, Иэн Глен, Эйдан Гиллен и др.

О фильме: В Вестеросе наступила осень предвестник долгой зимы, когда Белые ходоки пробудятся ото сна. Но Стена и её защитники позабыты: три короля претендуют на Железный трон и два верховных лорда провозгласили себя королями над своими землями. Никто из них не желает заключить союзы, и каждый считает свое право на трон священным. И воцарился над миром кровавый хаос войны. И началась великая битва, в которой наградою победителю станет Железный Трон Семи Королевств.
Страшные настали времена времена отваги и отмщения, интриги и магии. Ныне дева повстречает безумца, а брат занесет меч на брата. Ныне убитые восстанут и пойдут тропою Тьмы. Ныне вонзится холодная сталь в холодные сердца.
Ныне грядет предначертанная пророчеством БИТВА КОРОЛЕЙ



Страна: США
Продолжительность: ~ 00:55:00
Перевод: Профессиональный (многоголосый, закадровый) - LostFilm

Файл
Кодек: H264
Качество: HDTVRip 720p
Видео: MPEG4 Video (H264) 1280x720 23.976fps
Звук: Rus/Eng: AC3, 2 ch, 384 Кбит/с

07.05.2012 г., торент обновлён, добавлена 9-10 серия!
General
Unique ID : 201321866720797080379667484680617907160 (0x97752E605ABBED09B994B437714AD3D8)
Complete name : E:СериалыGame.of.Thrones.s02.rus.LostFilm (720p)Game.of.Thrones.s02e01.rus.720p.LostFilm.TV.mkv
Format : Matroska
Format version : Version 2
File size : 1.86 GiB
Duration : 55mn 18s
Overall bit rate : 4 813 Kbps
Encoded date : UTC 2012-04-04 17:30:06
Writing application : mkvmerge v4.2.0 ('No Talking') сборка от Jul 28 2010 18:38:23
Writing library : libebml v1.0.0 + libmatroska v1.0.0

Video
ID : 1
Format : AVC
Format/Info : Advanced Video Codec
Format profile : High@L3.1
Format settings, CABAC : Yes
Format settings, ReFrames : 4 frames
Codec ID : V_MPEG4/ISO/AVC
Duration : 55mn 18s
Bit rate : 4 041 Kbps
Width : 1 280 pixels
Height : 720 pixels
Display aspect ratio : 16:9
Frame rate : 23.976 fps
Color space : YUV
Chroma subsampling : 4:2:0
Bit depth : 8 bits
Scan type : Progressive
Bits/(Pixel*Frame) : 0.183
Stream size : 1.53 GiB (82%)
Writing library : x264 core 112 r1834 a51816a
Encoding settings : cabac=1 / ref=1 / deblock=1:0:0 / analyse=0x3:0x113 / me=hex / subme=7 / psy=1 / psy_rd=1.00:0.00 / mixed_ref=0 / me_range=16 / chroma_me=1 / trellis=1 / 8x8dct=1 / cqm=0 / deadzone=21,11 / fast_pskip=1 / chroma_qp_offset=-2 / threads=6 / sliced_threads=0 / nr=0 / decimate=1 / interlaced=0 / constrained_intra=0 / bframes=3 / b_pyramid=2 / b_adapt=1 / b_bias=0 / direct=1 / weightb=1 / open_gop=0 / weightp=2 / keyint=250 / keyint_min=25 / scenecut=40 / intra_refresh=0 / rc_lookahead=40 / rc=2pass / mbtree=1 / bitrate=4041 / ratetol=1.0 / qcomp=0.60 / qpmin=0 / qpmax=51 / qpstep=4 / cplxblur=20.0 / qblur=0.5 / ip_ratio=1.40 / aq=1:1.00
Default : Yes
Forced : No

Audio #1
ID : 2
Format : AC-3
Format/Info : Audio Coding 3
Mode extension : CM (complete main)
Codec ID : A_AC3
Duration : 55mn 18s
Bit rate mode : Constant
Bit rate : 384 Kbps
Channel(s) : 2 channels
Channel positions : Front: L R
Sampling rate : 48.0 KHz
Bit depth : 16 bits
Compression mode : Lossy
Stream size : 152 MiB (8%)
Default : Yes
Forced : No

Audio #2
ID : 3
Format : AC-3
Format/Info : Audio Coding 3
Mode extension : CM (complete main)
Codec ID : A_AC3
Duration : 55mn 18s
Bit rate mode : Constant
Bit rate : 384 Kbps
Channel(s) : 2 channels
Channel positions : Front: L R
Sampling rate : 48.0 KHz
Bit depth : 16 bits
Compression mode : Lossy
Stream size : 152 MiB (8%)
Default : No
Forced : No


Релиз от:



Скачать Игра.престолов.Game.of.Thrones.(сезон.02).(Алан.Тейлор.Брайан.Кирк.Даниэль.Минахан).[2012.фэнтези.драма.приключения.HDTVRip].[720p].[LostFilm].torrent без регистрации
Золото ЗОЛОТАЯ РАЗДАЧА! СКАЧАННОЕ НЕ ЗАСЧИТЫВАЕТСЯ! Золото
Дата: Зарегистрирован   [ Тип: внутренний ] Как тут cкачать?
MAGNET ссылка
MAGNET ссылка


Скачать .torrent

98 KB

Статус: проверено DHT
Скачан: торрент - 923 раз, раздача полностью - 1530 раз
Размер: 19,36 GB
Оценка:  5 (Голосов: 8)
Поблагодарили: 17
Поделиться ссылкой на эту раздачу с друзьями:
В контактеFacebookОдноклассникиTwitterLivejournalМой МирLiveinternet
 

 
Показать сообщения:    


Вы не можете начинать темы
Вы не можете отвечать на сообщения
Вы не можете редактировать свои сообщения
Вы не можете удалять свои сообщения
Вы не можете голосовать в опросах
Вы не можете прикреплять файлы к сообщениям
Вы можете скачивать файлы