Loading...
Error

Скачать Душевная кухня / Soul Kitchen (Фатих Акин) [2009, Германия, Комедия, DVDRip] [Dub] торрент без регистрации

 
Статистика раздачи
Размер:  1,37 GB   |    Скачан:  154 раза

Полного источника не было: 2 года 3 месяца

 
Автор Сообщение

leon030982

[] 

Душевная кухня / Soul Kitchen
Страна: Германия
Жанр: Комедия
Год выпуска: 2009
Продолжительность: 01:35:40
Перевод: Профессиональный (дублированный)
Cубтитры: нет
Режиссер: Фатих Акин/Fatih Akin
В ролях: Адам Боусдукс, Мориц Блайбтрой, Бироль Унел, Анна Бедерке, Фелина Рогган, Лукас Грегорович, Дорка Гриллус, Вотан Вильке Мёринг
Описание: Зинос Казанзакис держит не слишком людный (чтобы не сказать медленно загибающийся) ресторанчик на окраине Гамбурга. Немногочисленные посетители довольствуются нехитрой стряпней его собственного приготовления и наизусть знают меню, состоящее из нескольких строк на одном листке. Тихая жизнь идет своим чередом, пока на голову Зиноса не сваливаются все 33 несчастья. Из тюрьмы в «увольнительные» начинает регулярно выходить его беспутный брат.
По наводке приятеля, мечтающего прибрать ресторанчик к рукам и превратить его в бордель, заявляется санитарная инспекция, а за ней налоговая полиция. И в довершении всех бед красавица-подружка бросает его и уезжает работать в Шанхай. Ситуация критическая, и выход может быть только один: пригласить супершеф-повара, сделать ресторан самым модным местом Гамбурга! А попутно решить проблемы в личной жизни.

Сэмпл: http://ifolder.ru/16696322
Качество видео: DVDRip
Формат видео: AVI
Видео: Xvid, ~1587 kb/s 25.000 fps, 704x368
Аудио: AC3, 48.0 KHz 6 channels, 448 kb/s
Dushevnaya.kuhnya[ СПАМ
General
Format : AVI
Format/Info : Audio Video Interleave
File size : 1.37 GiB
Duration : 1h 35mn
Overall bit rate : 2 045 Kbps
Writing application : VirtualDubMod 1.5.10.2 (build 2540/release)
Writing library : VirtualDubMod build 2540/release
Video #0
ID : 0
Format : MPEG-4 Visual
Format profile : Advanced Simple@L5
Format settings, BVOP : Yes
Format settings, QPel : No
Format settings, GMC : No warppoints
Format settings, Matrix : Default (MPEG)
Muxing mode : Packed bitstream
Codec ID : XVID
Codec ID/Hint : XviD
Duration : 1h 35mn
Bit rate : 1 588 Kbps
Width : 704 pixels
Height : 368 pixels
Display aspect ratio : 1.913
Frame rate : 25.000 fps
Resolution : 8 bits
Colorimetry : 4:2:0
Scan type : Progressive
Bits/(Pixel*Frame) : 0.245
Stream size : 1.06 GiB (78%)
Writing library : XviD 1.2.1 (UTC 2008-12-04)
Audio #1
ID : 1
Format : AC-3
Format/Info : Audio Coding 3
Codec ID : 2000
Duration : 1h 35mn
Bit rate mode : Constant
Bit rate : 448 Kbps
Channel(s) : 6 channels
Channel positions : Front: L C R, Surround: L R, LFE
Sampling rate : 48.0 KHz
Video delay : 8ms
Stream size : 307 MiB (22%)
Alignment : Split accross interleaves
Interleave, duration : 40 ms (1.00 video frame)
Interleave, preload duration : 500 ms

Венецианский кинофестиваль, 2009 год
* Специальный приз жюри
* Приз молодежного кино за лучший фильм
Cлоган: «"Leben ist, was passiert, waehrend du dabei bist, andere Plaene zu machen" (Life is what happens to you while you are busy making other plans.)»





Скачать Душевная.кухня.Soul.Kitchen.(Фатих.Акин).[2009.Германия.Комедия.DVDRip].[Dub].torrent без регистрации
Золото ЗОЛОТАЯ РАЗДАЧА! СКАЧАННОЕ НЕ ЗАСЧИТЫВАЕТСЯ! Золото
Дата: Зарегистрирован   [ Тип: внутренний ] Как тут cкачать?
MAGNET ссылка
MAGNET ссылка


Скачать .torrent

14 KB

Статус: проверено
Скачан: торрент - 154 раз, раздача полностью - 16 раз
Размер: 1,37 GB
Оценка:  - (Голосов: 0)
Поблагодарили: 1
Поделиться ссылкой на эту раздачу с друзьями:
В контактеFacebookОдноклассникиTwitterLivejournalМой МирLiveinternet
 

 
Показать сообщения:    


Вы не можете начинать темы
Вы не можете отвечать на сообщения
Вы не можете редактировать свои сообщения
Вы не можете удалять свои сообщения
Вы не можете голосовать в опросах
Вы не можете прикреплять файлы к сообщениям
Вы можете скачивать файлы