Loading...
Error

Скачать Мы легенды / Seuls two (Рамзи Бедиа / Ramzy Bedia, Эрик Жюдор / Eric Judor) [2008, Комедия, DVDRip] [Dub] торрент без регистрации

 
Статистика раздачи
Размер:  720 MB   |    Скачан:  119 раз
Сидов:  1  [  0 KB/s  ]  
 
Автор Сообщение

leon030982

[] 

Мы легенды / Seuls two

Страна: Франция
Жанр: Комедия
Год выпуска: 2008
Продолжительность: 01:32:47
Перевод: Профессиональный (дублированный) НТВ+
Cубтитры: нет
Режиссер: Рамзи Бедиа / Ramzy Bedia , Эрик Жюдор / Eric Judor
В ролях: Рамзи Бедиа (Кертис), Эрик Жюдор (Жерве), Хафид Ф. Бенамар (развозчик товаров), Элоди Буше (Жюльетт), Кристин Скотт Томас (антиквар), Бенуа Мажимель
Описание: Полицейский-неудачник Жерве Блондо 10 лет безрезультатно пытается поймать грабителя-рецидивиста Кёртиса и в конечном итоге становится объектом насмешек всего полицейского управления. Однажды, в очередной раз гоняясь за Кёртисом, Жерве вдруг замечает, что весь Париж вымер. В городе никого не осталось, кроме него и его давнего соперника. Проходит какое-то время, и, устав от одиночества, враги становятся друзьями...

Сэмпл: http://multi-up.com/189113
Качество видео: DVDRip
Формат видео: AVI
Видео: 624x256 (2.44:1), 25 fps, XviD build 50 ~952 kbps avg, 0.24 bit/pixel
Аудио: 48 kHz, MPEG Layer 3, 2 ch, ~128.00 kbps avg
Общее
Полное имя : S:\Фильмы\seul two.avi
Формат : AVI
Формат/Информация : Audio Video Interleave
Размер файла : 720 Мбайт
Продолжительность : 1 ч. 32 м.
Общий поток : 1085 Кбит/сек
Программа кодирования : VirtualDubMod 1.5.4.1 (build 2178/release)
Библиотека кодирования : VirtualDub build 30009/release
Видео
Идентификатор : 0
Формат : MPEG-4 Visual
Профиль формата : Advanced Simple@L5
Параметр BVOP формата : 1
Параметр QPel формата : Нет
Параметр GMC формата : Без точки перехода
Параметр матрицы формата : Выборочная
Идентификатор кодека : XVID
Идентификатор кодека/Подсказка : XviD
Продолжительность : 1 ч. 32 м.
Битрейт : 952 Кбит/сек
Ширина : 624 пикс.
Высота : 256 пикс.
Соотношение сторон : 2,40:1
Частота кадров : 25,000 кадр/сек
Цветовое пространство : YUV
Подвыборка цветности : 4:2:0
Битовая глубина : 8 бит
Тип развёртки : Прогрессивная
Метод сжатия : С потерями
Бит/(Пиксели*Кадры) : 0.238
Размер потока : 631 Мбайт (88%)
Библиотека кодирования : XviD 1.2.1 (UTC 2008-12-04)
Аудио
Идентификатор : 1
Формат : MPEG Audio
Версия формата : Version 1
Профиль формата : Layer 3
Идентификатор кодека : 55
Идентификатор кодека/Подсказка : MP3
Продолжительность : 1 ч. 29 м.
Вид битрейта : Постоянный
Битрейт : 128 Кбит/сек
Каналы : 2 канала
Частота : 48,0 КГц
Метод сжатия : С потерями
Задержка видео : 8 мс.
Размер потока : 82,0 Мбайт (11%)
Выравнивание : Разделение по промежуткам
Продолжительность промежутка : 41 мс. (1,04 видеокадр)
Время предзагрузки промежутка : 500 ms



Скачать Мы.легенды.Seuls.two.(Рамзи.Бедиа.Ramzy.Bedia.Эрик.Жюдор.Eric.Judor).[2008.Комедия.DVDRip].[Dub].torrent без регистрации
Золото ЗОЛОТАЯ РАЗДАЧА! СКАЧАННОЕ НЕ ЗАСЧИТЫВАЕТСЯ! Золото
Дата: Зарегистрирован   [ Тип: внутренний ] Как тут cкачать?
MAGNET ссылка
MAGNET ссылка


Скачать .torrent

15 KB

Статус: проверено DHT
Скачан: торрент - 119 раз, раздача полностью - 44 раз
Размер: 720 MB
Оценка:  5 (Голосов: 2)
Поблагодарили: 2
Поделиться ссылкой на эту раздачу с друзьями:
В контактеFacebookОдноклассникиTwitterLivejournalМой МирLiveinternet
 

 
Показать сообщения:    


Вы не можете начинать темы
Вы не можете отвечать на сообщения
Вы не можете редактировать свои сообщения
Вы не можете удалять свои сообщения
Вы не можете голосовать в опросах
Вы не можете прикреплять файлы к сообщениям
Вы можете скачивать файлы