Loading...
Error

Скачать Харпер / Harper (Джек Смайт / Jack Smight) [1966, детектив, драма, DVDRip-AVC] [MVO] торрент без регистрации

 
Статистика раздачи
Размер:  1,26 GB   |    Скачан:  143 раза

Полного источника не было: 9 месяцев

 
Автор Сообщение

leon030982

[] 

Харпер / Harper
Страна: США
Жанр: детектив, драма
Год выпуска: 1966
Продолжительность: 02:01:05
Перевод: Профессиональный (многоголосый закадровый) - НТВ+
Cубтитры: английские
Оригинальная аудиодорожка: английский
Режиссер: Джек Смайт / Jack Smight
В ролях: Пол Ньюман, Лорен Бэколл, Джули Харрис, Артур Хилл, Дженет Ли, Памела Тиффин, Роберт Вагнер, Роберт Уэббер, Шелли Уинтерс, Харольд Гоулд
Описание: Частного детектива из Лос-Анджелеса Лью Харпера нанимает богатая дама для поисков своего пропавшего мужа. Расследование оказывается смертельно опасным для сыщика...

IMDb - 7.0
КиноПоиск - 7.2
Сэмпл: http://multi-up.com/632734 (7,5 МБ)
Качество видео: DVDRip-AVC
Формат видео: MKV
Видео: H.264, 720x360 @ 853x360 (2.37:1), ~24 fps, ~1077 Kbps
Аудио 1: AC3, 48 KHz, 192 Kbps, 2 ch, MVO (НТВ+)
Аудио 2: AC3, 48 KHz, 192 Kbps, 1 ch, Original (ENG)
Субтитры: softsub (English)
General
Unique ID : 239103060036156058428681437761451651872 (0xB3E19306198AEB7D94FB9474A34CF320)
Complete name : E:\Projects\Harper 1966\Harper.mkv
Format : Matroska
Format version : Version 2
File size : 1.26 GiB
Duration : 2h 1mn
Overall bit rate : 1 491 Kbps
Encoded date : UTC 2012-01-19 16:24:13
Writing application : mkvmerge v5.0.1 ('Es ist Sommer') built on Oct 9 2011 11:55:43
Writing library : libebml v1.2.2 + libmatroska v1.3.0
Video
ID : 1
Format : AVC
Format/Info : Advanced Video Codec
Format profile : High@L3.0
Format settings, CABAC : Yes
Format settings, ReFrames : 4 frames
Codec ID : V_MPEG4/ISO/AVC
Bit rate : 1 077 Kbps
Width : 720 pixels
Height : 360 pixels
Display aspect ratio : 2.35:1
Frame rate mode : Variable
Color space : YUV
Chroma subsampling : 4:2:0
Bit depth : 8 bits
Scan type : Progressive
Title : Video AVC, ~1109 Kbps, 720x360 @ 853x360, 2.37:1
Writing library : x264 core 118 r2085 8a62835
Encoding settings : cabac=1 / ref=3 / deblock=1:0:0 / analyse=0x3:0x113 / me=hex / subme=7 / psy=1 / psy_rd=1.00:0.00 / mixed_ref=1 / me_range=16 / chroma_me=1 / trellis=1 / 8x8dct=1 / cqm=0 / deadzone=21,11 / fast_pskip=1 / chroma_qp_offset=-2 / threads=1 / sliced_threads=0 / nr=0 / decimate=1 / interlaced=0 / bluray_compat=0 / constrained_intra=0 / bframes=3 / b_pyramid=2 / b_adapt=1 / b_bias=0 / direct=1 / weightb=1 / open_gop=0 / weightp=2 / keyint=250 / keyint_min=23 / scenecut=40 / intra_refresh=0 / rc_lookahead=40 / rc=crf / mbtree=1 / crf=18.0 / qcomp=0.60 / qpmin=0 / qpmax=69 / qpstep=4 / ip_ratio=1.40 / aq=1:1.00
Language : English
Default : Yes
Forced : No
Audio #1
ID : 2
Format : AC-3
Format/Info : Audio Coding 3
Mode extension : CM (complete main)
Codec ID : A_AC3
Duration : 2h 1mn
Bit rate mode : Constant
Bit rate : 192 Kbps
Channel(s) : 2 channels
Channel positions : Front: L R
Sampling rate : 48.0 KHz
Bit depth : 16 bits
Compression mode : Lossy
Stream size : 166 MiB (13%)
Title : Закадровый (НТВ+)
Language : Russian
Default : Yes
Forced : No
Audio #2
ID : 3
Format : AC-3
Format/Info : Audio Coding 3
Mode extension : CM (complete main)
Codec ID : A_AC3
Duration : 2h 1mn
Bit rate mode : Constant
Bit rate : 192 Kbps
Channel(s) : 1 channel
Channel positions : Front: C
Sampling rate : 48.0 KHz
Bit depth : 16 bits
Compression mode : Lossy
Stream size : 166 MiB (13%)
Title : Оригинал
Language : English
Default : No
Forced : No
Text
ID : 4
Format : UTF-8
Codec ID : S_TEXT/UTF8
Codec ID/Info : UTF-8 Plain Text
Title : Оригинал
Language : English
Default : No
Forced : No



Скачать Харпер.Harper.(Джек.Смайт.Jack.Smight).[1966.детектив.драма.DVDRip-AVC].[MVO].torrent без регистрации
Золото ЗОЛОТАЯ РАЗДАЧА! СКАЧАННОЕ НЕ ЗАСЧИТЫВАЕТСЯ! Золото
Дата: Зарегистрирован   [ Тип: внутренний ] Как тут cкачать?
MAGNET ссылка
MAGNET ссылка


Скачать .torrent

13 KB

Статус: проверено
Скачан: торрент - 143 раз, раздача полностью - 4 раз
Размер: 1,26 GB
Оценка:  - (Голосов: 0)
Поблагодарили: 2
Поделиться ссылкой на эту раздачу с друзьями:
В контактеFacebookОдноклассникиTwitterLivejournalМой МирLiveinternet
 

 
Показать сообщения:    


Вы не можете начинать темы
Вы не можете отвечать на сообщения
Вы не можете редактировать свои сообщения
Вы не можете удалять свои сообщения
Вы не можете голосовать в опросах
Вы не можете прикреплять файлы к сообщениям
Вы можете скачивать файлы