Loading...
Error

Скачать Фарт / Luck (1x1-9 из 9) (Michael Mann) [2011, Драма, HDTVRip] [LostFilm] торрент без регистрации

 
Статистика раздачи
Размер:  5,99 GB   |    Скачан:  143 раза
Сидов:  1  [  0 KB/s  ]  
 
Автор Сообщение

leon030982

[] 

Фарт / Luck
Год выпуска: 2011
Страна: США
Жанр: Драма
Продолжительность: 00:57:00
Перевод: Профессиональный многоголосый закадровый - LostFilm
Русские субтитры: нет
Режиссёр: Michael Mann
В ролях: Дастин Хоффман, Деннис Фарина, Джон Ортиз, Ричард Кайнд, Иэн Харт, Кевин Данн, Ричи Костер, Джейсон Гедрик, Гари Стивенс, Том Пэйн и др.
Описание: Сериал Luck расскажет нам о удивительном и чрезвычайно затягивающем – азартном мире скачек, где выиграешь ты или проиграешь зависит не только от твоих знаний и умений, но и от удачи.
Главный герой сериала только только вышел из тюрьмы. Он не верит никому, вся его прошлая жизнь - череда афер, ставок и денежных махинаций. И он не собирается забывать об этом, напротив: используя весь свой опыт, герой планирует провернуть новое дело. Для этого он объединяется с своим бывшим шофером (и по совместительству вышибалой) по имени Гас.
Их цель – ипподром и скачки. Но одних своих сил и знаний не хватает, поэтому мошенники нанимают успешного и скандально известного тренера.
Ведь когда на кону миллионы долларов, одной удачи будет мало, и ей будут нужны помощники.

Сэмпл: http://multi-up.com/643548
Качество: HDTVRip
Формат: AVI
Видео кодек: XviD
Аудио кодек: MP3
Видео: MPEG4, XviD, 720x400 (16/9), 23.976 fps, 1 966 Kbps (0.285 bit/pixel)
Аудио: MP3, 48.0 KHz, 2 ch, 128 Kbps, CBR
General
Complete name : I:\ЗАКАЧКИ\Luck.S01E01.rus.LostFilm.TV.avi
Format : AVI
Format/Info : Audio Video Interleave
File size : 859 MiB
Duration : 57mn 1s
Overall bit rate : 2 107 Kbps
Writing application : Nandub v1.0rc2
Writing library : Nandub build 1853/release
Video
ID : 0
Format : MPEG-4 Visual
Format profile : Simple@L3
Format settings, BVOP : No
Format settings, QPel : No
Format settings, GMC : No warppoints
Format settings, Matrix : Default (H.263)
Codec ID : XVID
Codec ID/Hint : XviD
Duration : 57mn 1s
Bit rate : 1 966 Kbps
Width : 720 pixels
Height : 400 pixels
Display aspect ratio : 16:9
Frame rate : 23.976 fps
Color space : YUV
Chroma subsampling : 4:2:0
Bit depth : 8 bits
Scan type : Progressive
Compression mode : Lossy
Bits/(Pixel*Frame) : 0.285
Stream size : 802 MiB (93%)
Writing library : XviD 1.2.1 (UTC 2008-12-04)
Audio
ID : 1
Format : MPEG Audio
Format version : Version 1
Format profile : Layer 3
Mode : Joint stereo
Mode extension : MS Stereo
Codec ID : 55
Codec ID/Hint : MP3
Duration : 57mn 1s
Bit rate mode : Constant
Bit rate : 128 Kbps
Channel(s) : 2 channels
Sampling rate : 48.0 KHz
Compression mode : Lossy
Stream size : 52.2 MiB (6%)
Alignment : Aligned on interleaves
Interleave, duration : 24 ms (0.58 video frame)
Interleave, preload duration : 480 ms
Раздача ведётся путём добавления новых серий; при каждом добавлении создаётся новый торрент. Чтобы начать докачку новой серии, пользователям необходимо сделать следующее:
(1) остановить скачивание,
(2) удалить старый торрент у себя из клиента (старые серии удалять не надо),
(3) скачать новый торрент и запустить его у себя в клиенте вместо старого, при этом указать клиенту путь в старую папку куда и должно происходить скачивание новых серий.
Ваш клиент при этом должен произвести хеширование (проверку) старой папки (если не производит сам - помогите ему сделать это), и будет докачивать только те серии которых у вас ещё нет. Старые серии при этом не удаляются, а продолжают раздаваться!
Eсли вы уже удалили старые серии, то предотвратить повторную закачку старых серий можно, отжав галочку в соответствующих местах при запуске нового торрента. По возможности, желательно не удалять старые серии как можно дольше чтобы релизёр не столько продолжал раздавать старые серии, а смог сконцентрироваться на новых.



Скачать Фарт.Luck.(1x1-9.из.9).(Michael.Mann).[2011.Драма.HDTVRip].[LostFilm].torrent без регистрации
Золото ЗОЛОТАЯ РАЗДАЧА! СКАЧАННОЕ НЕ ЗАСЧИТЫВАЕТСЯ! Золото
Дата: Зарегистрирован   [ Тип: внутренний ] Как тут cкачать?
MAGNET ссылка
MAGNET ссылка


Скачать .torrent

31 KB

Статус: проверено DHT
Скачан: торрент - 143 раз, раздача полностью - 31 раз
Размер: 5,99 GB
Оценка:  - (Голосов: 0)
Поблагодарили: 3
Поделиться ссылкой на эту раздачу с друзьями:
В контактеFacebookОдноклассникиTwitterLivejournalМой МирLiveinternet
 

 
Показать сообщения:    


Вы не можете начинать темы
Вы не можете отвечать на сообщения
Вы не можете редактировать свои сообщения
Вы не можете удалять свои сообщения
Вы не можете голосовать в опросах
Вы не можете прикреплять файлы к сообщениям
Вы можете скачивать файлы