Loading...
Error

Скачать (Baroque) Festliches Barock: Bach, Handel, Vivaldi, Telemann, Corelli, Scarlatti, Pachelbel (Capella Istropolitana, Richard Edlinger) [2002, APE (image+.cue), lossless] торрент без регистрации

Статистика раздачи
Размер:  737 MB   |    Скачан:  124 раза
Сидов:  1  [  0 KB/s  ]  
 
 
 
Автор Сообщение

onealoner

[] 

Festliches Barock: Bach, Handel, Vivaldi, Telemann, Corelli, Scarlatti, Pachelbel (Capella Istropolitana, Richard Edlinger)
Жанр: Baroque
Год выпуска диска: 2002
Производитель диска: Германия (Naxos)
Аудио кодек: APE
Тип рипа: image+.cue
Битрейт аудио: lossless
Продолжительность: CD1:61’20; CD2:56’24; CD3:53’37
Исполнители:
Capella Istropolitana
Conductor - Richard Edlinger
Recording: 1987-89
CD1
1.Bach J.S. - Air on G String
2.Bach J.S. - Badinerie from "Suite No. 2"
3.Bach J.S. - Second Movement from "Concerto for 2 Violins" - BMV 1043
4.Handel - Allegro Finale from "Fireworks Music"
5.Marcello A. - Adagio from "Oboe Concerto in C Minor"
6.Handel - Presto from "Water Music"
7.Handel - Larghetto from "Xerxes"
8.Vivaldi - Allegro from "Concerto No. 1, Op. 8. `Spring"
9.Albinoni - "Giazotto - Adagio in G Minor"
10.Vivaldi - Allegor from "Concerto in B flat for 2 Trumpets"
11.Corelli - Pastorale from Concerto grosso No. 8 - Op.6 - "Christmas Concerto"
12.Vivaldi - Allegro from "Autumn - The Four Seasons"
13.Telemann - Andante from "Concerto for Viola"
14.Handel - Allegro from "Concerto grosso No. 12"
CD2
1.Handel - 'See here the conqu'ring hero comes' (Judas Maccabaeus)
2.Vivaldi - Allegro Molto ('Winter' from The Four Seasons)
3.Praetorious - Es ist ein Ros entsprungen
4.Torelli - Trumpet Concerto
5.Bach J.S. - 'Nun komm, der Heiden Heiland', BWV 659
6.Handel - Oboe Concerto
7.Bach J.S. - 'In dulci jubilo', BWV 729
8.Vivaldi - Guitar Concerto
9.Handel - Hornpipe (Concerto Grosso Op. 6 No. 7)
10.Bach J.S. - Pastorale, BWV 590
11.Handel - Vivace (Trumpet Concerto in D Major)
12.Vivaldi - Largo ("Spring" from The Four Seasons)
13.Bach J.S. - 'Wachet auf' (Cantata BWV140 No. 1)
14.Scarlatti D. - Sonata P87
15.Bach J.S. - 'O Haupt voll Blut und Wunden'
CD3
1.Pachelbel - Canon
2.Pachelbel – Gigue
3.Sammartini - Recorder Concerto in F (Siciliano)
4.Vivaldi - Violin Concerto in G Minor, Op. 12 No. 1 RV 317 (Largo E Spiccato)
5.Telemann - Trumpet Concerto in D (1st Movement)
6.Telemann - Trumpet Concerto in D (4th Movement)
7.Handel - Sonata in A Minor Op1 No. 4 (Larghetto-allegro-adagio-allegro)
8.Vivaldi - Cello Concerto in A Minor (Largo E Cantabile)
9.Telemann - Concerto for 2 Violins in G Minor (Vivace)
10.Vivaldi - Flute Concerto No. 11 in C RV 443 (Largo)
11.Telemann - Trumpet Concerto in B (Allegro)
12.Bach J.S. - Brandenburg Concerto No. 1 (Largo)
13.Telemann - Tafelmusik - Concert No. 3 for 2 Horns (Allegro)
14.Vivaldi - Flute Concerto No. 10 in C Minor RV 441 (Largo)
15.Vivaldi - Trumpet Concerto in B Flat Minor (Largo)
16.Handel - Concerto Grosso in G, Op.6 No. 1 (Allegro)
Exact Audio Copy V0.99 prebeta 4 from 23. January 2008
EAC extraction logfile from 4. April 2010, 0:32
Capella Istropolitana - Richard Edlinger / The Best of Baroque Music
Used drive : Optiarc DVD RW AD-7173A Adapter: 1 ID: 1
Read mode : Secure
Utilize accurate stream : Yes
Defeat audio cache : Yes
Make use of C2 pointers : No
Read offset correction : 48
Overread into Lead-In and Lead-Out : No
Fill up missing offset samples with silence : Yes
Delete leading and trailing silent blocks : No
Null samples used in CRC calculations : Yes
Used interface : Native Win32 interface for Win NT & 2000
Used output format : Internal WAV Routines
Sample format : 44.100 Hz; 16 Bit; Stereo
TOC of the extracted CD
Track | Start | Length | Start sector | End sector
---------------------------------------------------------
1 | 0:00.00 | 5:59.20 | 0 | 26944
2 | 5:59.20 | 1:25.63 | 26945 | 33382
3 | 7:25.08 | 7:02.67 | 33383 | 65099
4 | 14:28.00 | 2:15.05 | 65100 | 75229
5 | 16:43.05 | 4:48.03 | 75230 | 96832
6 | 21:31.08 | 2:43.07 | 96833 | 109064
7 | 24:14.15 | 3:42.08 | 109065 | 125722
8 | 27:56.23 | 3:27.62 | 125723 | 141309
9 | 31:24.10 | 11:30.68 | 141310 | 193127
10 | 42:55.03 | 3:25.12 | 193128 | 208514
11 | 46:20.15 | 4:09.70 | 208515 | 227259
12 | 50:30.10 | 3:07.63 | 227260 | 241347
13 | 53:37.73 | 4:34.02 | 241348 | 261899
14 | 58:12.00 | 3:08.53 | 261900 | 276052
Range status and errors
Selected range
Filename C:\Documents and Settings\The Best of Baroque Music.wav
Peak level 94.2 %
Range quality 99.9 %
Copy CRC 000D6626
Copy OK
No errors occurred
End of status report
Exact Audio Copy V0.99 prebeta 4 from 23. January 2008
EAC extraction logfile from 4. April 2010, 0:58
Capella Istropolitana, Richard Edlinger / Baroque Favorites
Used drive : Optiarc DVD RW AD-7173A Adapter: 1 ID: 1
Read mode : Secure
Utilize accurate stream : Yes
Defeat audio cache : Yes
Make use of C2 pointers : No
Read offset correction : 48
Overread into Lead-In and Lead-Out : No
Fill up missing offset samples with silence : Yes
Delete leading and trailing silent blocks : No
Null samples used in CRC calculations : Yes
Used interface : Native Win32 interface for Win NT & 2000
Used output format : Internal WAV Routines
Sample format : 44.100 Hz; 16 Bit; Stereo
TOC of the extracted CD
Track | Start | Length | Start sector | End sector
---------------------------------------------------------
1 | 0:00.00 | 3:07.00 | 0 | 14024
2 | 3:07.00 | 3:39.00 | 14025 | 30449
3 | 6:46.00 | 1:23.00 | 30450 | 36674
4 | 8:09.00 | 4:18.00 | 36675 | 56024
5 | 12:27.00 | 4:41.00 | 56025 | 77099
6 | 17:08.00 | 3:09.00 | 77100 | 91274
7 | 20:17.00 | 3:29.00 | 91275 | 106949
8 | 23:46.00 | 3:23.00 | 106950 | 122174
9 | 27:09.00 | 2:36.00 | 122175 | 133874
10 | 29:45.00 | 10:03.00 | 133875 | 179099
11 | 39:48.00 | 2:48.00 | 179100 | 191699
12 | 42:36.00 | 2:37.00 | 191700 | 203474
13 | 45:13.00 | 5:49.00 | 203475 | 229649
14 | 51:02.00 | 2:42.00 | 229650 | 241799
15 | 53:44.00 | 3:28.00 | 241800 | 257399
Range status and errors
Selected range
Filename C:\Documents and Settings\Baroque Favorites.wav
Peak level 93.5 %
Range quality 99.9 %
Copy CRC 3C794BFB
Copy OK
No errors occurred
End of status report
Exact Audio Copy V0.99 prebeta 4 from 23. January 2008
EAC extraction logfile from 4. April 2010, 1:21
Capella Istropolitana, Richard Edlinger / Baroque Festival
Used drive : Optiarc DVD RW AD-7173A Adapter: 1 ID: 1
Read mode : Secure
Utilize accurate stream : Yes
Defeat audio cache : Yes
Make use of C2 pointers : No
Read offset correction : 48
Overread into Lead-In and Lead-Out : No
Fill up missing offset samples with silence : Yes
Delete leading and trailing silent blocks : No
Null samples used in CRC calculations : Yes
Used interface : Native Win32 interface for Win NT & 2000
Used output format : Internal WAV Routines
Sample format : 44.100 Hz; 16 Bit; Stereo
TOC of the extracted CD
Track | Start | Length | Start sector | End sector
---------------------------------------------------------
1 | 0:00.00 | 4:45.50 | 0 | 21424
2 | 4:45.50 | 1:26.00 | 21425 | 27874
3 | 6:11.50 | 4:29.00 | 27875 | 48049
4 | 10:40.50 | 2:41.00 | 48050 | 60124
5 | 13:21.50 | 1:52.00 | 60125 | 68524
6 | 15:13.50 | 1:54.00 | 68525 | 77074
7 | 17:07.50 | 9:13.00 | 77075 | 118549
8 | 26:20.50 | 4:00.00 | 118550 | 136549
9 | 30:20.50 | 1:44.00 | 136550 | 144349
10 | 32:04.50 | 4:10.00 | 144350 | 163099
11 | 36:14.50 | 2:52.00 | 163100 | 175999
12 | 39:06.50 | 5:15.00 | 176000 | 199624
13 | 44:21.50 | 3:33.00 | 199625 | 215599
14 | 47:54.50 | 1:56.00 | 215600 | 224299
15 | 49:50.50 | 2:36.00 | 224300 | 235999
16 | 52:26.50 | 1:59.62 | 236000 | 244986
Range status and errors
Selected range
Filename C:\Documents and Settings\Baroque Festival.wav
Peak level 100.0 %
Range quality 99.9 %
Copy CRC 727FEE4A
Copy OK
No errors occurred
End of status report



Скачать Festliches.Barock.Bach.Handel.Vivaldi.Telemann.Corelli.Scarlatti.Pachelbel.(Capella.Istropolitana.Richard.Edlinger).[2002.APE.(image+.cue).lossless].torrent без регистрации
Золото ЗОЛОТАЯ РАЗДАЧА! СКАЧАННОЕ НЕ ЗАСЧИТЫВАЕТСЯ! Золото
Дата: Зарегистрирован   [ Тип: внутренний ] Как тут cкачать?
MAGNET ссылка
MAGNET ссылка


Скачать .torrent

16 KB

Статус: проверено DHT
Скачан: торрент - 124 раз, раздача полностью - 9 раз
Размер: 737 MB
Оценка:  - (Голосов: 0)
Поблагодарили: 0
Поделиться ссылкой на эту раздачу с друзьями:
В контактеFacebookОдноклассникиTwitterLivejournalМой МирLiveinternet
 

 
Показать сообщения:    


Вы не можете начинать темы
Вы не можете отвечать на сообщения
Вы не можете редактировать свои сообщения
Вы не можете удалять свои сообщения
Вы не можете голосовать в опросах
Вы не можете прикреплять файлы к сообщениям
Вы можете скачивать файлы