Loading...
Error

Скачать Американская история ужасов / American Horror Story (Полный 1-ый сезон) (Райан Мерфи, Дэвид Семел) [2011, ужасы, драма, WEB-DL] [720p] [DD 5.1 LostFilm] + [DD 5.1 Кубик в Кубе] торрент без регистрации

 
Статистика раздачи
Размер:  19,51 GB   |    Скачан:  8431 раз
Сидов:  1  [  1 KB/s  ]  
 
Автор Сообщение

leon030982

[] 



Американская история ужасов / Американские ужасы /
American Horror Story


Год выпуска: 2011
Страна: США | FX
Жанр: ужасы, триллер, драма
Продолжительность: ~ 42 минуты

Перевод:Профессиональный (многоголосый, закадровый) - LostFilm
Профессиональный (двухголосый, закадровый) - Кубик в кубе
Субтитры: Russian (forced), Russian (full by Инга Бу & lostrator), English

Режиссёр: Брэд Фэлчак, Райан Мерфи
В ролях: Конни Бриттон, Ивэн Питерс, Таисса Фармига, Джессика Лэнг, Дилан МакДермотт, Дэнис О’Харе, Jamie Brewer, Шелби Янг, Александра Брекенридж, Фрэнсис Конрой и др.
Описание: Психологический триллер, в центре сюжета которого терапевт и его жена, которые переживают не самый лучший этап в их супружеской жизни. Вместе с детьми они переезжают в новый дом, который, как кажется, знает все их страхи и играет на них.
Качество: WEB-DL 720p
Формат: MKV
Видео кодек: H.264
Аудио кодек: AC3
Видео: 1280x720 (16:9), 23.976 fps, ~4000 kbps, ~0.180 bit/pixel
Аудио Rus: 48 kHz, 6 ch, ~448 kbps |LostFilm|
Аудио Rus: 48 kHz, 6 ch, ~448 kbps |Кубик в кубе|
Аудио Eng: 48 kHz, 6 ch, ~384 kbps |Original|
by lostrator
/ Сэмпл / ImDB / Кинопоиск

Pilot / Начало
Home Invasion / Вторжение
Murder House / Дом Убийств
Helloween / Хэллоуин, Часть 1
Helloween / Хэллоуин, Часть 2
Piggy, Piggy / Свинка, Свинка
Open House / День Открытых Дверей
Rubber Man / Латексный Призрак
Spooky Little Girl / Напуганная Девочка
Smoldering Children / Копченые Дети
Birth / Рождение
Afterbirth / После Родов

[b]Общее
Уникальный идентификатор : 243617332201968847086086314989384656427 (0xB746FDD3557F067B9C127E7C4808662B)
Полное имя : F:\American.Horror.Story.S01.WEB-DL.720p\A.H.S.1x01.Pilot.720p.WEB-DL.DD5.1.HDCLUB.-lostrator.mkv
Формат : Matroska
Размер файла : 1,92 Гбайт
Продолжительность : 52 м.
Общий поток : 5268 Кбит/сек
Название фильма : American Horror Story 1x01 Pilot @ [HDCLUB.org] by lostrator
Дата кодирования : UTC 2011-10-10 20:09:48
Программа кодирования : mkvmerge v4.9.1 ('Ich will') сборка от Jul 11 2011 23:53:15
Библиотека кодирования : libebml v1.2.1 + libmatroska v1.1.1
Attachment : Yes / Yes / Yes / Yes / Yes
Видео
Идентификатор : 1
Формат : AVC
Формат/Информация : Advanced Video Codec
Профиль формата : High@L3.1
Параметр CABAC формата : Нет
Параметр ReFrames формата : 2 кадра
Идентификатор кодека : V_MPEG4/ISO/AVC
Продолжительность : 52 м.
Битрейт : 3883 Кбит/сек
Ширина : 1280 пикс.
Высота : 720 пикс.
Соотношение сторон : 16:9
Частота кадров : 23,976 кадр/сек
Цветовое пространство : YUV
Подвыборка цветности : 4:2:0
Битовая глубина : 8 бит
Тип развёртки : Прогрессивная
Бит/(Пиксели*Кадры) : 0.176
Размер потока : 1,41 Гбайт (74%)
Заголовок : American Horror Story 1x01 Pilot @ HDBITS
Язык : English
Основные цвета : BT.709-5, BT.1361, IEC 61966-2-4, SMPTE RP177
Характеристики трансфера : BT.709-5, BT.1361
Коэффициенты матрицы : BT.709-5, BT.1361, IEC 61966-2-4 709, SMPTE RP177
Аудио #1
Идентификатор : 2
Формат : AC-3
Формат/Информация : Audio Coding 3
Расширение режима : CM (complete main)
Идентификатор кодека : A_AC3
Продолжительность : 52 м.
Вид битрейта : Постоянный
Битрейт : 448 Кбит/сек
Каналы : 6 каналов
Расположение каналов : Front: L C R, Side: L R, LFE
Частота : 48,0 КГц
Битовая глубина : 16 бит
Метод сжатия : С потерями
Размер потока : 167 Мбайт (9%)
Заголовок : Dolby Digital 5.1 @ 448 kbps @ Lostfilm (c)
Язык : Russian
Аудио #2
Идентификатор : 3
Формат : AC-3
Формат/Информация : Audio Coding 3
Расширение режима : CM (complete main)
Идентификатор кодека : A_AC3
Продолжительность : 52 м.
Вид битрейта : Постоянный
Битрейт : 448 Кбит/сек
Каналы : 6 каналов
Расположение каналов : Front: L C R, Side: L R, LFE
Частота : 48,0 КГц
Битовая глубина : 16 бит
Метод сжатия : С потерями
Размер потока : 167 Мбайт (9%)
Заголовок : Dolby Digital 5.1 @ 448 kbps @ Kubik-V-Kube
Язык : Russian
Аудио #3
Идентификатор : 4
Формат : AC-3
Формат/Информация : Audio Coding 3
Расширение режима : CM (complete main)
Идентификатор кодека : A_AC3
Продолжительность : 52 м.
Вид битрейта : Постоянный
Битрейт : 384 Кбит/сек
Каналы : 6 каналов
Расположение каналов : Front: L C R, Side: L R, LFE
Частота : 48,0 КГц
Битовая глубина : 16 бит
Метод сжатия : С потерями
Размер потока : 143 Мбайт (7%)
Заголовок : Dolby Digital 5.1 @ 384 kbps
Язык : English
Текст #1
Идентификатор : 5
Формат : ASS
Идентификатор кодека : S_TEXT/ASS
Идентификатор кодека/Информация : Advanced Sub Station Alpha
Метод сжатия : Без потерь
Заголовок : Russian @ ASS @ Forced
Язык : Russian
Текст #2
Идентификатор : 6
Формат : ASS
Идентификатор кодека : S_TEXT/ASS
Идентификатор кодека/Информация : Advanced Sub Station Alpha
Метод сжатия : Без потерь
Заголовок : Russian @ ASS @ Full [Inga Boo]
Язык : Russian
Текст #3
Идентификатор : 7
Формат : ASS
Идентификатор кодека : S_TEXT/ASS
Идентификатор кодека/Информация : Advanced Sub Station Alpha
Метод сжатия : Без потерь
Заголовок : English @ ASS
Язык : English
Меню
00:00:00.000 : en:Главушка 1.
00:08:14.000 : en:Главушка 2.
00:22:34.000 : en:Главушка 3.
00:30:28.000 : en:Главушка 4.
00:38:40.000 : en:Главушка 5.
00:43:07.183 : en:Главушка 6.
00:50:53.000 : en:Главушка 6.





Скачать Американская.история.ужасов.American.Horror.Story.(Полный.1-ый.сезон).(Райан.Мерфи.Дэвид.Семел).[2011.ужасы.драма.WEB-DL].[720p].[DD.5.1.LostFilm].+.[DD.5.1.Кубик.в.Кубе].torrent без регистрации
Золото ЗОЛОТАЯ РАЗДАЧА! СКАЧАННОЕ НЕ ЗАСЧИТЫВАЕТСЯ! Золото
Дата: Зарегистрирован   [ Тип: внутренний ] Как тут cкачать?
MAGNET ссылка
MAGNET ссылка


Скачать .torrent

99 KB

Статус: проверено DHT
Скачан: торрент - 8431 раз, раздача полностью - 1292 раз
Размер: 19,51 GB
Оценка:  4,8 (Голосов: 4)
Поблагодарили: 10
Поделиться ссылкой на эту раздачу с друзьями:
В контактеFacebookОдноклассникиTwitterLivejournalМой МирLiveinternet
 

 
Показать сообщения:    


Вы не можете начинать темы
Вы не можете отвечать на сообщения
Вы не можете редактировать свои сообщения
Вы не можете удалять свои сообщения
Вы не можете голосовать в опросах
Вы не можете прикреплять файлы к сообщениям
Вы можете скачивать файлы