Loading...
Error

Скачать Настоящая Кровь / True Blood (06x01-10) (Майкл Леманн, Алан Болл) [2013, фэнтези, триллер, драма, WEB-DL] [1080p] [DVO (Кубик в Кубе)] торрент без регистрации

 
Статистика раздачи
Размер:  22,23 GB   |    Скачан:  216 раз
Сидов:  1  [  0 KB/s  ]  
 
Автор Сообщение

МихаНЕзатор

[] 

Настоящая кровь / True Blood

Год выпуска: 2013
Страна: США
Жанр: фэнтези, триллер, драма
Продолжительность: ~00:55:00
Перевод: Профессиональный двухголосый закадровый | (Кубик в Кубе)
Субтитры: нет
Режиссер: Майкл Леманн / Michael Lehmann, Алан Болл / Alan Ball

В ролях:
Анна Пэкуин / Anna Paquin, Стивен Мойер / Stephen Moyer, Александр Скарсгард / Alexander Skarsg•rd, Сэм Трэммелл / Sam Trammell, Райан Квантен / Ryan Kwanten
Описание:
События разворачиваются в небольшом городке в пригороде Нового Орлеана. С тех пор, как японцы изобрели синтетическую кровь «True Blood», у вампиров отпала необходимость убивать простых смертных. Два года назад вампиры покинули свои гробы и официально заявили о своих правах. Но как водится, не все люди оказались готовы к этому, и не все вампиры были рады отказаться от привычного лакомства. Сьюки Стэкхауз обычная официантка из пригородного кафе, наделенная способностью читать мысли окружающих, знакомится с «хорошим» вампиром Биллом Комтоном. И сразу приобретает много врагов из «плохих парней».
Внимание! В сериале присутствуют нецензурная лексика и сцены с обнаженной натурой!
Качество: WEB-DL 1080p
Формат: MKV
Видео кодек: H.264
Аудио кодек: AC3
Видео: 1920x1080, 4829 kbps, 23,976 fps, 0.097 bit/pixel
Audio: 48 kHz, AC3 Dolby Digital, 3/2 (L,C,R,l,r) + LFE ch, ~384.00 kbps avg | (Кубик в Кубе)
Audio: 48 kHz, AC3 Dolby Digital, 3/2 (L,C,R,l,r) + LFE ch, ~384.00 kbps avg



Релиз: &

Озвучка: Кубик в Кубе
Перевод: El_Brujo
Работа со звуком : ЛП

02.09.2013 г. торент обновлён, добавлена 10 серия!

General
Unique ID : 194196658770961399079968384486782648138 (0x9218EA80769B2503AB735E81B0E9BF4A)
Complete name : D:FilmiTrue Blood (Ѓ•—ћќ 6) WEB-DL 1080pTrue.Blood.S06E01.WEB-DL.1080p.CasStudio.TV.mkv
Format : Matroska
Format version : Version 2
File size : 2.08 GiB
Duration : 52mn 5s
Overall bit rate : 5 711 Kbps
Encoded date : UTC 2013-06-18 15:49:44
Writing application : mkvmerge v6.2.0 ('Promised Land') built on Apr 28 2013 12:22:01
Writing library : libebml v1.3.0 + libmatroska v1.4.0
Video #1
ID : 1
Format : AVC
Format/Info : Advanced Video Codec
Format profile : High@L4.0
Format settings, CABAC : Yes
Format settings, ReFrames : 4 frames
Codec ID : V_MPEG4/ISO/AVC
Duration : 52mn 5s
Bit rate : 4 829 Kbps
Width : 1 920 pixels
Height : 1 080 pixels
Display aspect ratio : 16:9
Frame rate mode : Constant
Frame rate : 23.976 fps
Color space : YUV
Chroma subsampling : 4:2:0
Bit depth : 8 bits
Scan type : Progressive
Bits/(Pixel*Frame) : 0.097
Stream size : 1.76 GiB (85%)
Language : English
Default : Yes
Forced : No
Color primaries : BT.709
Transfer characteristics : BT.709
Matrix coefficients : BT.709
Audio #2
ID : 2
Format : AC-3
Format/Info : Audio Coding 3
Mode extension : CM (complete main)
Format settings, Endianness : Big
Codec ID : A_AC3
Duration : 52mn 5s
Bit rate mode : Constant
Bit rate : 384 Kbps
Channel(s) : 6 channels
Channel positions : Front: L C R, Side: L R, LFE
Sampling rate : 48.0 KHz
Bit depth : 16 bits
Compression mode : Lossy
Stream size : 143 MiB (7%)
Title : љЈ‘?љ?
Language : Russian
Default : Yes
Forced : No
Audio #3
ID : 3
Format : AC-3
Format/Info : Audio Coding 3
Mode extension : CM (complete main)
Format settings, Endianness : Big
Codec ID : A_AC3
Duration : 52mn 5s
Bit rate mode : Constant
Bit rate : 384 Kbps
Channel(s) : 6 channels
Channel positions : Front: L C R, Side: L R, LFE
Sampling rate : 48.0 KHz
Bit depth : 16 bits
Compression mode : Lossy
Stream size : 143 MiB (7%)
Title : ћ ?“?ќђ›
Language : English
Default : No
Forced : No



Внимание! Раздача ведётся путём добавления новых серий; при каждом добавлении создётся новый торрент. Чтобы начать докачку новой серии, пользователям необходимо сделать следующее: (1) остановить скачивание, (2) удалить старый торрент у себя из клиента (старые серии удалять не надо), (3) скачать новый торрент и запустить его у себя в клиенте вместо старого, при этом указать клиенту путь в старую папку куда и должно происходить скачивание новых серий.

Ваш клиент при этом должен произвести хеширование (проверку) старой папки (если не производит сам - помогите ему сделать это), и будет докачивать только те серии которых у вас ещё нет. Старые серии при этом не удаляются, а продолжают раздаваться!

Eсли вы уже удалили старые серии, то предотвратить повторную закачку старых серий можно, отжав галочку в соответсвующих местах при запуске нового торрента.


01 - Who Are You, Really? / Кто ты на самом деле?
02 - The Sun
03 -
04 -
05 -
06 -
07 -
08 -
09 -
10 -




Скачать Настоящая.Кровь.True.Blood.(06x01-10).(Майкл.Леманн.Алан.Болл).[2013.фэнтези.триллер.драма.WEB-DL].[1080p].[DVO.(Кубик.в.Кубе)].torrent без регистрации
Золото ЗОЛОТАЯ РАЗДАЧА! СКАЧАННОЕ НЕ ЗАСЧИТЫВАЕТСЯ! Золото
Дата: Зарегистрирован   [ Тип: внутренний ] Как тут cкачать?
MAGNET ссылка
MAGNET ссылка


Скачать .torrent

57 KB

Статус: проверено DHT
Скачан: торрент - 216 раз, раздача полностью - 21 раз
Размер: 22,23 GB
Оценка:  5 (Голосов: 1)
Поблагодарили: 2
Поделиться ссылкой на эту раздачу с друзьями:
В контактеFacebookОдноклассникиTwitterLivejournalМой МирLiveinternet
 

 

МихаНЕзатор

[] 

Раздача обновлена.
 
Показать сообщения:    


Вы не можете начинать темы
Вы не можете отвечать на сообщения
Вы не можете редактировать свои сообщения
Вы не можете удалять свои сообщения
Вы не можете голосовать в опросах
Вы не можете прикреплять файлы к сообщениям
Вы можете скачивать файлы