Loading...
Error

Скачать Лиллехаммер / Lilyhammer (сезон 01) ( Гер Хеннинг Хопланд, Симен Альсвик, Лиза Мари Гамлем) [2012, драма, комедия, криминал, HDRip] [MVO (Первый канал)] торрент без регистрации

 
Статистика раздачи
Размер:  4,37 GB   |    Скачан:  154 раза
Сидов:  1  [  0 KB/s  ]  
 
Автор Сообщение

МихаНЕзатор

[] 

Год выпуска: 2011
Выпущено: США, Норвегия / Rubicon TV AS

Жанр: драма, комедия, криминал
Продолжительность: ~ 00:45:00 / серия

Перевод: Профессиональный (многоголосый, закадровый) Первый канал
Оригинальная аудиодорожка: нет
Субтитры: нет

Режиссер: Гер Хеннинг Хопланд / Geir Henning Hopland, Симен Альсвик / Simen Alsvik, Лиза Мари Гамлем / Lisa Marie Gamlem

В ролях: Стив Ван Зандт, Мариан Саастад Оттесен, Тронд Фауса Аурвааг, Энн Кригсволл, Стейнар Саген, Микаэль Акснес-Персон, Свен Нордин, Фридтьов Сохейм, Кюрре Хеллум, Томми Карлсен...

Описание: Тальяно сдал своего босса федералам, и теперь, в рамках программы по защите свидетелей, он переезжает в Лиллехаммер, небольшой норвежский городок, когда-то приютивший зимние олимпийские игры. Сам Фрэнк называет его Лилихэммером, отсюда и название сериала. Фрэнк мечтает о рае с «чистым воздухом, белым снегом и клевыми телками», вдали от соблазнов Нью-Йорка и от карателей мафии. Реальность, конечно же, оказывается не такой, как мечты.



Качество: HDRip (BDRip 720p)
Формат: AVI
Видео: 720x400 (16:9), 25.000 fps, XviD ~ 1340 kbps avg, 0.186 bit/pixel
Аудио: 48 kHz, Dolby AC3 5.1 384 kbps, русский

АНОНСЫ ПОПУЛЯРНЫХ РАЗДАЧ

Релиз рассчитан для записи на одну болванку DVD5. Звук в данном релизе наконец-то нормальный шестиканальный АС3. Во всех предыдущих релизах звук двухканальный и убитый при прослушивании разница очень сильно чувствуется. Понизил оригинальный звук до 384 кбпс, поскольку качество исходного звука не выше соответствующего порога (18 кгц), что позволило оставить больше места для видео.

1. Reality Check / Проверка Реальности
2. The Flamingo / Фламинго
3. Guantanamo Blues / Блюз по Гуантанамо
4. The Midwife / Повитуха
5. My Kind of Town / Такой Город Мне По Вкусу
6. Pack Your Lederhosen / Пакуйте Кожаные Штаны
7. The Babysitter / Нянька
8. Trolls / Тролли

Общее
Полное имя : Lillehammer.s01.2011.P.HDRip_[Youtracker]_by_avproh1.avi
Формат : AVI
Формат/Информация : Audio Video Interleave
Размер файла : 560 Мбайт
Продолжительность : 45 м.
Общий поток : 1733 Кбит/сек
Программа кодирования : VirtualDubModRus 1.5.10.2 (build 2542/release)
Библиотека кодирования : VirtualDubMod build 2542/release

Видео
Идентификатор : 0
Формат : MPEG-4 Visual
Профиль формата : Advanced Simple@L5
Параметр BVOP формата : 1
Параметр QPel формата : Нет
Параметр GMC формата : Без точки перехода
Параметр матрицы формата : Выборочная
Идентификатор кодека : XVID
Идентификатор кодека/Подсказка : XviD
Продолжительность : 45 м.
Битрейт : 1340 Кбит/сек
Ширина : 720 пикселей
Высота : 400 пикселей
Соотношение сторон : 16:9
Частота кадров : 25,000 кадров/сек
Цветовое пространство : YUV
Субдискретизация насыщенности : 4:2:0
Битовая глубина : 8 бит
Тип развёртки : Прогрессивная
Метод сжатия : С потерями
Бит/(Пиксели*Кадры) : 0.186
Размер потока : 433 Мбайт (77%)
Библиотека кодирования : XviD 65

Аудио
Идентификатор : 1
Формат : AC-3
Формат/Информация : Audio Coding 3
Расширение режима : CM (complete main)
Параметр Endianness формата : Big
Идентификатор кодека : 2000
Продолжительность : 45 м.
Вид битрейта : Постоянный
Битрейт : 384 Кбит/сек
Каналы : 6 каналов
Расположение каналов : Front: L C R, Side: L R, LFE
Частота : 48,0 КГц
Битовая глубина : 16 бит
Метод сжатия : С потерями
Размер потока : 124 Мбайт (22%)
Выравнивание : Разделение по промежуткам
Продолжительность промежутка : 40 мс. (1,00 видеокадр)
Время предзагрузки промежутка : 500 мс.



Скачать Лиллехаммер.Lilyhammer.(сезон.01).(.Гер.Хеннинг.Хопланд.Симен.Альсвик.Лиза.Мари.Гамлем).[2012.драма.комедия.криминал.HDRip].[MVO.(Первый.канал)].torrent без регистрации
Золото ЗОЛОТАЯ РАЗДАЧА! СКАЧАННОЕ НЕ ЗАСЧИТЫВАЕТСЯ! Золото
Дата: Зарегистрирован   [ Тип: внутренний ] Как тут cкачать?
MAGNET ссылка
MAGNET ссылка


Скачать .torrent

23 KB

Статус: проверено DHT
Скачан: торрент - 154 раз, раздача полностью - 124 раз
Размер: 4,37 GB
Оценка:  - (Голосов: 0)
Поблагодарили: 4
Поделиться ссылкой на эту раздачу с друзьями:
В контактеFacebookОдноклассникиTwitterLivejournalМой МирLiveinternet
 

 
Показать сообщения:    


Вы не можете начинать темы
Вы не можете отвечать на сообщения
Вы не можете редактировать свои сообщения
Вы не можете удалять свои сообщения
Вы не можете голосовать в опросах
Вы не можете прикреплять файлы к сообщениям
Вы можете скачивать файлы