Loading...
Error

Скачать Элементарно / Elementary (Сезон 1, серии 01-22 из 24) (Джон Дэвид Коулз, Майкл Куэста) [2012, Драма, криминал, детектив, WEB-DLRip] [400p] [Dub] (Первый канал) торрент без регистрации

 
Статистика раздачи
Размер:  17,49 GB   |    Скачан:  7658 раз
Сидов:  1  [  0 KB/s  ]  
 
Автор Сообщение

leon030982

[] 

Элементарно / Elementary

«New Holmes. New Watson. New York.»

Год выпуска: 2012
Страна: США
Производство: CBS Television Studios
Жанр: Драма, Криминал, Детектив
Продолжительность: ~ 00:44:00
Перевод: Профессиональный (полное дублирование) [Первый канал]
Субтитры: Отсутствуют
Исходник: ECI [WEB-DL/720p]

Озвучка: Первый канал
Синхронизация видео и аудио: Neon_project
Режиссёры: Джон Дэвид Коулз/John David Coles, Майкл Куэста/Michael Cuesta, Род Холкомб/Rod Holcomb, Розмари Родригез/Rosemary Rodriguez

В ролях: Джонни Ли Миллер, Люси Лью, Эйдан Куинн, Джон Майкл Хилл, Рози Бэйкер, Джонатан Чарльз Каплан, Даллас Робертс, Мэнни Перез, Джонатан Уолкер, Кристен Буш ...
Описание: "Элементарно" (англ. Elementary) основан на произведениях сэра Артура Конан Дойля о Шерлоке Холмсе, действие происходит в наши дни. Главные роли Шерлока Холмса и доктора Джоан Ватсон исполняют Джонни Ли Миллер и Люси Лью.
Действие в сериале происходит в Нью-Йорке на Манхэттене, где поселиться Шерлоку помог его состоятельный отец, он же и нашёл ему домашнего медработника Джоан Ватсон, которая когда-то была хорошим хирургом, но потом из-за смерти пациента ей пришлось сменить скальпель на присмотр за больными. Первую серию снял Майкл Куэста, который прежде работал над сериалами "Декстер" и "Родина".
Ажиотаж вокруг нового сериала CBS "Элементарно" набирает обороты: увидеть Шерлока Холмса и доктора Ватсона в исполнении Джонни Ли Миллера и Люси Лью не терпится многим. В конце сентября состоялась премьера в США и теперь премьера фильма на Первом канале!
Качество: WEB-DLRip [400p]
Формат: AVI
Видео: 720x400 (1.80:1), 23.976 fps, XviD build 50 ~1998 kbps avg, 0.29 bit/pixel
Аудио #1: 48 kHz, AC3 Dolby Digital, 2/0 (L,R) ch, ~192 kbps [Русский]
Аудио #2: 48 kHz, AC3 Dolby Digital, 3/2 (L,C,R,l,r) + LFE ch, ~384 kbps [Английский]
Сэмпл | Официальный сайт | IMDb | КиноПоиск | WiKi | | |
Общее
Полное имя : 01х01.avi
Формат : AVI
Формат/Информация : Audio Video Interleave
Размер файла : 847 Мбайт
Продолжительность : 45 м.
Общий поток : 2590 Кбит/сек
Программа кодирования : VirtualDubMod 1.5.10.3 | www.virtualdub-fr.org || (build 2550/release)
Библиотека кодирования : VirtualDubMod build 2550/release
Видео
Идентификатор : 0
Формат : MPEG-4 Visual
Профиль формата : Advanced Simple@L5
Параметр BVOP формата : 1
Параметр QPel формата : Нет
Параметр GMC формата : Без точки перехода
Параметр матрицы формата : Default (MPEG)
Идентификатор кодека : XVID
Идентификатор кодека/Подсказка : XviD
Продолжительность : 45 м.
Битрейт : 1999 Кбит/сек
Ширина : 720 пикселей
Высота : 400 пикселей
Соотношение сторон : 16:9
Частота кадров : 23,976 кадра/сек
Цветовое пространство : YUV
Субдискретизация насыщенности : 4:2:0
Битовая глубина : 8 бит
Тип развёртки : Прогрессивная
Метод сжатия : С потерями
Бит/(Пиксели*Кадры) : 0.290
Размер потока : 654 Мбайт (77%)
Библиотека кодирования : XviD 1.2.1 (UTC 2008-12-04)
Аудио #1
Идентификатор : 1
Формат : AC-3
Формат/Информация : Audio Coding 3
Расширение режима : CM (complete main)
Идентификатор кодека : 2000
Продолжительность : 45 м.
Вид битрейта : Постоянный
Битрейт : 192 Кбит/сек
Каналы : 2 канала
Расположение каналов : Front: L R
Частота : 48,0 КГц
Битовая глубина : 16 бит
Метод сжатия : С потерями
Размер потока : 62,8 Мбайт (7%)
Выравнивание : Разделение по промежуткам
Продолжительность промежутка : 42 мс. (1,00 видеокадр)
Время предзагрузки промежутка : 500 мс.
Аудио #2
Идентификатор : 2
Формат : AC-3
Формат/Информация : Audio Coding 3
Расширение режима : CM (complete main)
Идентификатор кодека : 2000
Продолжительность : 45 м.
Вид битрейта : Постоянный
Битрейт : 384 Кбит/сек
Каналы : 6 каналов
Расположение каналов : Front: L C R, Side: L R, LFE
Частота : 48,0 КГц
Битовая глубина : 16 бит
Метод сжатия : С потерями
Размер потока : 126 Мбайт (15%)
Выравнивание : Разделение по промежуткам
Продолжительность промежутка : 42 мс. (1,00 видеокадр)
Время предзагрузки промежутка : 500 мс.
01. Pilot | Пилот | 14.10.2012
Бывший консультант Скотланд-Ярда Шерлок Холмс, являющийся наркоманом, отправляется в Нью-Йорк на лечение в реабилитационный центр. После процедур Холмс решает остаться в Бруклине. Отец приставляет к нему для контроля рассудительную девушку Джоан Ватсон. Вместе с Джоан Шерлок по просьбе Департамента полиции Нью-Йорка берется за раскрытие проникновения со взломом, обернувшегося убийством женщины…

02. While You Were Sleeping | Пока ты спал | 21.10.2012
Шерлок сбегает с собрания общества анонимных наркоманов. Новое дело Холмса и Джоан Ватсон – убийство молодого человека, застреленного при входе в свою квартиру.

03. Child Predator | Пожиратель детей | 26.10.2012
Шерлок и Ватсон занимаются делом о похищении ребeнка, в котором замешан серийный убийца по прозвищу "Человек с шариками". "Фирменный" знак преступника - связка воздушных шаров, всегда остающаяся на месте преступления.

04. The Rat Race | Крысиные бега | 04.11.2012
Несмотря на свое презрение к банкирам, Холмс соглашается принять участие в расследовании обстоятельств смерти крупного финансиста, произошедшей из-за передозировки героином. Тем временем, подбадриваемая Холмсом Ватсон снова собирается на свидание.

05. Lesser Evils | Малые пороки | .11.2012

06. Flight Risk | Риск полёта | .11.2012

07. One Way to Get Off | | ..2012

08. The Long Fuse | | ..2012

09. | | ..2012

10. | | ..2012

11. | | ..2012

12. | | ..2012

13. | | ..2012

14. | | ..2012

Внимание! Раздача ведётся путём добавления новых серий; при каждом добавлении создётся новый торрент. Чтобы начать докачку новой серии, пользователям необходимо сделать следующее:Остановить скачивание.
Удалить старый торрент у себя из клиента (старые серии удалять не надо).
Скачать новый торрент и запустить его у себя в клиенте вместо старого, при этом указать клиенту путь в старую папку куда и должно происходить скачивание новых серий.Ваш клиент при этом должен произвести хеширование (проверку) старой папки (если не производит сам - помогите ему сделать это), и будет докачивать только те серии которых у вас ещё нет. Старые серии при этом не удаляются, а продолжают раздаваться!
Eсли вы уже удалили старые серии, то предотвратить повторную закачку старых серий можно, отжав галочку в соответсвующих местах при запуске нового торрента. По возможности, желательно не удалять старые серии как можно дольше чтобы релизёр не столько продолжал раздавать старые серии, а смог сконцентрироваться на новых.
[align=center] [/font]




Скачать Элементарно.Elementary.(Сезон.1.серии.01-22.из.24).(Джон.Дэвид.Коулз.Майкл.Куэста).[2012.Драма.криминал.детектив.WEB-DLRip].[400p].[Dub].(Первый.канал).torrent без регистрации
Золото ЗОЛОТАЯ РАЗДАЧА! СКАЧАННОЕ НЕ ЗАСЧИТЫВАЕТСЯ! Золото
Дата: Зарегистрирован   [ Тип: внутренний ] Как тут cкачать?
MAGNET ссылка
MAGNET ссылка


Скачать .torrent

89 KB

Статус: проверено DHT
Скачан: торрент - 7658 раз, раздача полностью - 4 раз
Размер: 17,49 GB
Оценка:  - (Голосов: 0)
Поблагодарили: 3
Поделиться ссылкой на эту раздачу с друзьями:
В контактеFacebookОдноклассникиTwitterLivejournalМой МирLiveinternet
 

 

leon030982

[] 

раздача обновлена az
 
Показать сообщения:    


Вы не можете начинать темы
Вы не можете отвечать на сообщения
Вы не можете редактировать свои сообщения
Вы не можете удалять свои сообщения
Вы не можете голосовать в опросах
Вы не можете прикреплять файлы к сообщениям
Вы можете скачивать файлы