Loading...
Error

Скачать Удача / Luck / (Полный 1-ый сезон) (Michael Mann) [2011, драма, криминальный, HDTV] [720p] [AVO] (Ю.Сербин) торрент без регистрации

 
Статистика раздачи
Размер:  18,35 GB   |    Скачан:  139 раз
Сидов:  1  [  0 KB/s  ]  
 
Автор Сообщение

leon030982

[] 



Удача / Luck


Год выпуска: 2011
Страна: США | HBO
Жанр: драма, криминальный
Продолжительность: ~ 60 минут
Перевод: Авторский (одноголосый, закадровый) - Ю. Сербин
Субтитры: Английские
Режиссёр: Michael Mann
В ролях:

Dustin Hoffman, Gary Stevens, Tom Payne, Nick Nolte, John Ortiz, Ritchie Coster, Kevin Dunn, Dennis Farina, Jason Gedrick, Ian Hart, Richard Kind и др.
Описание:

Сериал «Удача» — новая драма канала HBO. Это проект известного режиссера Майкла Манна и создателя сериал «Дэдвуд» Дэвида Милча.
Сюжет сериала разворачивается вокруг мира лошадиных скачек и людей, с ним связанных — владельцев лошадей, игроков, жокеев и участников тотализаторов. Сериал рассказывает не только о скачках, но и об изнанке этого спорта — о том, что происходит на учебных заездах и в стойлах лошадей.
В ролях такие звезды как Дастин Хоффман, Деннис Фарина, Джон Ортиз, Ричард Кайнд, Иэн Харт, Кевин Данн, Ричи Костер, Джейсон Гедрик, Гари Стивенс, Том Пэйн, Кэрри Кондон, Гэри Стивенс и Ник Нолте.
Качество: HDTV 720p
Формат: MKV
Видео кодек: H.264
Аудио кодек: AC3
Видео: 1280x720 (16:9), 23.976 fps, ~5600 kbps, ~0.250 bit/pixel
Аудио Rus: 48 kHz, 6 ch, ~384 kbps |Ю. Сербин|
Аудио Eng: 48 kHz, 6 ch, ~384 kbps |Original|

Перевод: Ю. Сербин
/ Сэмпл / ImDB / Кинопоиск

Pilot / Пилот

[b]Общее
Уникальный идентификатор : 246292664069106098142594226856740287401 (0xB94A3DDED460407CAF6C2EC0CCB873A9)
Полное имя : E:\Luck.s01.hdtv.720p.rus.eng.novafilm\luck.s01e01.hdtv.720p.rus.eng. СПАМ
Формат : Matroska
Размер файла : 2,75 Гбайт
Продолжительность : 1 ч. 0 м.
Общий поток : 6561 Кбит/сек
Дата кодирования : UTC 2011-12-20 14:16:32
Программа кодирования : mkvmerge v4.0.0 ('The Stars were mine') сборка от Jun 6 2010 16:18:42
Библиотека кодирования : libebml v1.0.0 libmatroska v1.0.0
Видео
Идентификатор : 1
Формат : AVC
Формат/Информация : Advanced Video Codec
Профиль формата : High@L4.1
Параметр CABAC формата : Да
Параметр ReFrames формата : 5 кадров
Идентификатор кодека : V_MPEG4/ISO/AVC
Продолжительность : 1 ч. 0 м.
Битрейт : 5662 Кбит/сек
Ширина : 1280 пикс.
Высота : 720 пикс.
Соотношение сторон : 16:9
Частота кадров : 23,976 кадр/сек
Цветовое пространство : YUV
Подвыборка цветности : 4:2:0
Битовая глубина : 8 бит
Тип развёртки : Прогрессивная
Бит/(Пиксели*Кадры) : 0.256
Размер потока : 2,38 Гбайт (86%)
Заголовок : Luck - Season 1, Episode 1: Pilot ("Пилот")
Библиотека кодирования : x264 core 120 r2119 0637cd6
Настройки программы : cabac=1 / ref=5 / deblock=1:-1:-1 / analyse=0x3:0x113 / me=umh / subme=8 / psy=1 / psy_rd=1.00:0.15 / mixed_ref=1 / me_range=16 / chroma_me=1 / trellis=1 / 8x8dct=1 / cqm=0 / deadzone=21,11 / fast_pskip=1 / chroma_qp_offset=-3 / threads=36 / sliced_threads=0 / nr=0 / decimate=1 / interlaced=0 / bluray_compat=0 / constrained_intra=0 / bframes=3 / b_pyramid=2 / b_adapt=2 / b_bias=0 / direct=3 / weightb=1 / open_gop=0 / weightp=2 / keyint=250 / keyint_min=23 / scenecut=40 / intra_refresh=0 / rc_lookahead=50 / rc=crf / mbtree=1 / crf=18.0 / qcomp=0.60 / qpmin=0 / qpmax=69 / qpstep=4 / ip_ratio=1.40 / aq=1:1.00
Язык : English
Аудио #1
Идентификатор : 2
Формат : AC-3
Формат/Информация : Audio Coding 3
Расширение режима : CM (complete main)
Идентификатор кодека : A_AC3
Продолжительность : 1 ч. 0 м.
Вид битрейта : Постоянный
Битрейт : 384 Кбит/сек
Каналы : 6 каналов
Расположение каналов : Front: L C R, Side: L R, LFE
Частота : 48,0 КГц
Битовая глубина : 16 бит
Метод сжатия : С потерями
Размер потока : 165 Мбайт (6%)
Заголовок : Dolby Digital 5.1 @ 384 kbps
Язык : Russian
Аудио #2
Идентификатор : 3
Формат : AC-3
Формат/Информация : Audio Coding 3
Расширение режима : CM (complete main)
Идентификатор кодека : A_AC3
Продолжительность : 1 ч. 0 м.
Вид битрейта : Постоянный
Битрейт : 384 Кбит/сек
Каналы : 2 канала
Расположение каналов : Front: L R
Частота : 48,0 КГц
Битовая глубина : 16 бит
Метод сжатия : С потерями
Размер потока : 165 Мбайт (6%)
Заголовок : Dolby Digital 5.1 @ 384 kbps
Язык : English
Текст
Идентификатор : 4
Формат : UTF-8
Идентификатор кодека : S_TEXT/UTF8
Идентификатор кодека/Информация : UTF-8 Plain Text
Язык : English
Внимание! Раздача ведётся путём добавления новых серий; при каждом добавлении создётся новый торрент. Чтобы начать докачку новой серии, пользователям необходимо сделать следующее:

1) остановить скачивание,
2) удалить старый торрент у себя из клиента (старые серии удалять не надо),
3) скачать новый торрент и запустить его у себя в клиенте вместо старого, при этом указать клиенту путь в старую папку куда и должно происходить скачивание новых серий.
Ваш клиент при этом должен произвести хеширование (проверку) старой папки (если не производит сам - помогите ему сделать это), и будет докачивать только те серии которых у вас ещё нет. Старые серии при этом не удаляются, а продолжают раздаваться!
Eсли вы уже удалили старые серии, то предотвратить повторную закачку старых серий можно, отжав галочку в соответсвующих местах при запуске нового торрента.

[align=center] [/font]





Скачать Удача.Luck.(Полный.1-ый.сезон).(Michael.Mann).[2011.драма.криминальный.HDTV].[720p].[AVO].(Ю.Сербин).torrent без регистрации
Золото ЗОЛОТАЯ РАЗДАЧА! СКАЧАННОЕ НЕ ЗАСЧИТЫВАЕТСЯ! Золото
Дата: Зарегистрирован   [ Тип: внутренний ] Как тут cкачать?
MAGNET ссылка
MAGNET ссылка


Скачать .torrent

93 KB

Статус: проверено DHT
Скачан: торрент - 139 раз, раздача полностью - 1 раз
Размер: 18,35 GB
Оценка:  - (Голосов: 0)
Поблагодарили: 0
Поделиться ссылкой на эту раздачу с друзьями:
В контактеFacebookОдноклассникиTwitterLivejournalМой МирLiveinternet
 

 
Показать сообщения:    


Вы не можете начинать темы
Вы не можете отвечать на сообщения
Вы не можете редактировать свои сообщения
Вы не можете удалять свои сообщения
Вы не можете голосовать в опросах
Вы не можете прикреплять файлы к сообщениям
Вы можете скачивать файлы