Loading...
Error

Скачать Кто есть кто? / Полицейский или вор / Cop or Hood / Flic ou voyou (Жорж Лотнер) [1979, боевик, триллер, драма, комедия, криминал, BDRip-AVC] [Dub] + [2xDVO] торрент без регистрации

 
Статистика раздачи
Размер:  3,81 GB   |    Скачан:  127 раз

Полного источника не было: 8 месяцев

 
Автор Сообщение

leon030982

[] 

Кто есть кто? / Полицейский или вор / Cop or Hood / Flic ou voyou


Год выпуска: 1979
Страна: Франция
Жанр: боевик, триллер, драма, комедия, криминал
Продолжительность: 01:47:05
Перевод: Профессиональный дублированный (Советский дубляж), профессиональный двухголосый закадровый (Cinema Prestige), профессиональный двухголосый закадровый (НТВ)
Оригинальная аудиодорожка: французский
Русские субтитры: есть
Навигация по главам: есть
Режиссер: Жорж Лотнер / Georges Lautner
В ролях: Жан-Поль Бельмондо, Жорж Жере, Жан-Франсуа Бальме, Клод Броссе, Жюли Жезекель, Мишель Бон, Тони Кендалл, Катрин Лашанс, Джульетт Миллз, Венантино Венантини
Описание:
После того как в Ницце при загадочных обстоятельствах был убит полицейский комиссар, туда приезжает из Парижа инспектор, из отдела по надзору за полицией, чтобы вскрыть коррупцию, царящую среди полиции города.
Но методы его работы заставляют недоумевать, кого он больше напоминает, непринужденный и обольстительный, ловко действующий кулаками, но не чуждый сердечным порывам.
Kinopoisk.ru | IMDB | Sample |
Качество: BDRip-AVC | ( Diablo / Blu-Ray Remux / 1080p)
Формат: MKV
Видео кодек: H.264
Аудио кодек: AC3
Видео: H.264, 1052x634, 23.976 fps, ~4322 kbps
Аудио 1: Русский: 48 kHz, AC3, 2/0 (L,R) ch, ~192.00 kbps |Советский дубляж (в дубляже есть вставки двухголосой озвучки)|
Аудио 2: Русский: 48 kHz, AC3, 2/0 (L,R) ch, ~192.00 kbps |Двухголосый закадровый, Cinema Prestige|
Аудио 3: Русский: 48 kHz, AC3, 2/0 (L,R) ch, ~192.00 kbps |Двухголосый закадровый, НТВ|
Аудио 4: Французский: 48 kHz, AC3 Dolby Digital, 2/0 (L,R), ~192.00 kbps
Формат субтитров: softsub (SRT): русские, английские
Rip vs Sourse

Rip vs Sourse

x264 [info]: frame I:1108 Avg QP:18.38 size: 84285
x264 [info]: frame P:29236 Avg QP:19.96 size: 42608
x264 [info]: frame B:123712 Avg QP:22.12 size: 17238
x264 [info]: consecutive B-frames: 1.1% 0.9% 4.1% 14.4% 18.9% 40.7% 10.2% 4.5% 2.9% 2.2%
x264 [info]: mb I I16..4: 2.3% 88.4% 9.3%
x264 [info]: mb P I16..4: 0.4% 13.8% 0.9% P16..4: 37.0% 29.8% 16.9% 0.0% 0.0% skip: 1.2%
x264 [info]: mb B I16..4: 0.0% 1.0% 0.1% B16..8: 44.0% 16.0% 5.1% direct: 8.7% skip:25.2% L0:44.9% L1:43.5% BI:11.6%
x264 [info]: 8x8 transform intra:91.0% inter:67.3%
x264 [info]: direct mvs spatial:100.0% temporal:0.0%
x264 [info]: coded y,uvDC,uvAC intra: 96.6% 93.0% 81.2% inter: 42.1% 40.1% 20.5%
x264 [info]: i16 v,h,dc,p: 51% 12% 11% 26%
x264 [info]: i8 v,h,dc,ddl,ddr,vr,hd,vl,hu: 11% 8% 6% 10% 14% 14% 13% 12% 12%
x264 [info]: i4 v,h,dc,ddl,ddr,vr,hd,vl,hu: 11% 8% 2% 9% 16% 16% 15% 12% 12%
x264 [info]: i8c dc,h,v,p: 52% 16% 15% 17%
x264 [info]: Weighted P-Frames: Y:13.3% UV:7.1%
x264 [info]: ref P L0: 36.2% 11.3% 19.7% 7.3% 6.9% 4.5% 4.6% 2.3% 2.5% 1.9% 2.2% 0.3% 0.0%
x264 [info]: ref B L0: 66.2% 13.5% 6.6% 3.9% 2.8% 2.5% 2.0% 1.3% 0.7% 0.4%
x264 [info]: ref B L1: 92.2% 7.8%
x264 [info]: kb/s:4322.44
General
Unique ID : 249426103018603190307389537557704009385 (0xBBA5B8569BAAC5AB81B2A31B8C4AE6A9)
Complete name : I:\Cop.or.Hood.barm.mkv
Format : Matroska
Format version : Version 2
File size : 3.81 GiB
Duration : 1h 47mn
Overall bit rate : 5 093 Kbps
Movie name : Cop or Hood / Flic ou voyou 1979
Encoded date : UTC 2012-01-15 14:49:52
Writing application : mkvmerge v5.2.1 ('A Far Off Place') built on Jan 2 2012 23:21:10
Writing library : libebml v1.2.3 + libmatroska v1.3.0
Attachment : Yes
Video
ID : 1
Format : AVC
Format/Info : Advanced Video Codec
Format profile : High@L4.1
Format settings, CABAC : Yes
Format settings, ReFrames : 11 frames
Codec ID : V_MPEG4/ISO/AVC
Duration : 1h 47mn
Bit rate : 4 224 Kbps
Width : 1 052 pixels
Height : 634 pixels
Display aspect ratio : 1.659
Frame rate : 23.976 fps
Color space : YUV
Chroma subsampling : 4:2:0
Bit depth : 8 bits
Scan type : Progressive
Bits/(Pixel*Frame) : 0.264
Stream size : 3.16 GiB (83%)
Title : Кто есть кто? / Полицейский или вор / Cop or Hood / Flic ou voyou
Writing library : x264 core 120 r2120 0c7dab9
Encoding settings : cabac=1 / ref=11 / deblock=1:-3:-2 / analyse=0x3:0x113 / me=umh / subme=10 / psy=1 / psy_rd=1.05:0.05 / mixed_ref=1 / me_range=32 /
chroma_me=1 / trellis=2 / 8x8dct=1 / cqm=0 / deadzone=21,11 / fast_pskip=0 / chroma_qp_offset=-3 / threads=6 / sliced_threads=0 / nr=0 / decimate=0 / interlaced=0 /
bluray_compat=0 / constrained_intra=0 / bframes=9 / b_pyramid=2 / b_adapt=2 / b_bias=0 / direct=3 / weightb=1 / open_gop=0 / weightp=2 / keyint=250 / keyint_min=23 /
scenecut=40 / intra_refresh=0 / rc=crf / mbtree=0 / crf=18.6 / qcomp=0.60 / qpmin=0 / qpmax=69 / qpstep=4 / ip_ratio=1.40 / pb_ratio=1.30 / aq=2:0.80
Language : French
Default : Yes
Forced : No
Matrix coefficients : BT.709-5, BT.1361, IEC 61966-2-4 709, SMPTE RP177
Audio #1
ID : 2
Format : AC-3
Format/Info : Audio Coding 3
Mode extension : CM (complete main)
Codec ID : A_AC3
Duration : 1h 47mn
Bit rate mode : Constant
Bit rate : 192 Kbps
Channel(s) : 2 channels
Channel positions : Front: L R
Sampling rate : 48.0 KHz
Bit depth : 16 bits
Compression mode : Lossy
Stream size : 147 MiB (4%)
Title : Dubljaz, 48 kHz, AC3, 2/0 (L,R) ch, ~192.00 kbps
Language : Russian
Default : Yes
Forced : No
Audio #2
ID : 3
Format : AC-3
Format/Info : Audio Coding 3
Mode extension : CM (complete main)
Codec ID : A_AC3
Duration : 1h 47mn
Bit rate mode : Constant
Bit rate : 192 Kbps
Channel(s) : 2 channels
Channel positions : Front: L R
Sampling rate : 48.0 KHz
Bit depth : 16 bits
Compression mode : Lossy
Stream size : 147 MiB (4%)
Title : Cinema Prestige, 48 kHz, AC3, 2/0 (L,R) ch, ~192.00 kbps
Language : Russian
Default : No
Forced : No
Audio #3
ID : 4
Format : AC-3
Format/Info : Audio Coding 3
Mode extension : CM (complete main)
Codec ID : A_AC3
Duration : 1h 47mn
Bit rate mode : Constant
Bit rate : 192 Kbps
Channel(s) : 2 channels
Channel positions : Front: L R
Sampling rate : 48.0 KHz
Bit depth : 16 bits
Compression mode : Lossy
Stream size : 147 MiB (4%)
Title : NTV, 48 kHz, AC3, 2/0 (L,R) ch, ~192.00 kbps
Language : Russian
Default : No
Forced : No
Audio #4
ID : 5
Format : AC-3
Format/Info : Audio Coding 3
Mode extension : CM (complete main)
Codec ID : A_AC3
Duration : 1h 47mn
Bit rate mode : Constant
Bit rate : 192 Kbps
Channel(s) : 2 channels
Channel positions : Front: L R
Sampling rate : 48.0 KHz
Bit depth : 16 bits
Compression mode : Lossy
Stream size : 147 MiB (4%)
Title : Original, 48 kHz, AC3, 2/0 (L,R) ch, ~192.00 kbps
Language : French
Default : No
Forced : No
Text #1
ID : 6
Format : UTF-8
Codec ID : S_TEXT/UTF8
Codec ID/Info : UTF-8 Plain Text
Language : Russian
Default : No
Forced : No
Text #2
ID : 7
Format : UTF-8
Codec ID : S_TEXT/UTF8
Codec ID/Info : UTF-8 Plain Text
Language : English
Default : No
Forced : No
Menu
00:00:00.000 : en:Chapter 1
00:04:20.927 : en:Chapter 2
00:16:47.965 : en:Chapter 3
00:22:11.747 : en:Chapter 4
00:32:36.454 : en:Chapter 5
00:44:11.482 : en:Chapter 6
00:51:07.731 : en:Chapter 7
01:01:13.086 : en:Chapter 8
01:11:17.481 : en:Chapter 9
01:20:08.553 : en:Chapter 10
01:29:52.095 : en:Chapter 11
01:37:46.777 : en:Chapter 12



Скачать Кто.есть.кто?.Полицейский.или.вор.Cop.or.Hood.Flic.ou.voyou.(Жорж.Лотнер).[1979.боевик.триллер.драма.комедия.криминал.BDRip-AVC].[Dub].+.[2xDVO].torrent без регистрации
Золото ЗОЛОТАЯ РАЗДАЧА! СКАЧАННОЕ НЕ ЗАСЧИТЫВАЕТСЯ! Золото
Дата: Зарегистрирован   [ Тип: внутренний ] Как тут cкачать?
MAGNET ссылка
MAGNET ссылка


Скачать .torrent

20 KB

Статус: проверено
Скачан: торрент - 127 раз, раздача полностью - 8 раз
Размер: 3,81 GB
Оценка:  - (Голосов: 0)
Поблагодарили: 1
Поделиться ссылкой на эту раздачу с друзьями:
В контактеFacebookОдноклассникиTwitterLivejournalМой МирLiveinternet
 

 
Показать сообщения:    


Вы не можете начинать темы
Вы не можете отвечать на сообщения
Вы не можете редактировать свои сообщения
Вы не можете удалять свои сообщения
Вы не можете голосовать в опросах
Вы не можете прикреплять файлы к сообщениям
Вы можете скачивать файлы